Звоните ДиКаприо! (1-8 серии из 8) (2018) [WEBRip 720p]

Ответить на тему
Статистика раздачи
Размер:  7,1 GB   |    Зарегистрирован:  6 месяцев 4 дня   |    Скачан:  0 раз

Полного источника не было: 2 месяца 3 дня

 
     
 
 
 
Автор Сообщение

Ruff ®

Пол: Мужской

Стаж: 4 года 10 месяцев

Сообщений: 336

Создавать темы 13.Фев.2019 21:05

[Цитировать]

Звоните ДиКаприо!-- Год выпуска: 2018
Производство: Good Story Media
Жанр: комедия, драма
Продолжительность: ~00:50:00 серия
Режиссёр: Жора Крыжовников
В ролях: Александр Петров, Андрей Бурковский, Юлия Александрова, Юлия Хлынина, Александра Ревенко, Антон Васильев, Анна Невская, Яна Кошкина, Игорь Миркурбанов, Наталья Потапова
Описание: История об отношениях и судьбах двух братьев. Егор Румянцев — звезда хитового сериала про врачей. Он слетает с катушек от успеха: срывает съемки, путается в любовных связях, всем врет. Румянцев чувствует себя неуязвимым и живет для себя, ни во что не ставя чувства других людей. Но в один миг его мир переворачивается. Он узнает, что у него ВИЧ. Полная его противоположность — брат Лев. Он работает на кабельном телеканале «Муравей-ТВ», где ведет никому не нужную программу о полезных поделках. В съемной квартире его ждут беременная жена и две маленькие дочки. При этом ни денег, ни перспектив их заработать. Лев завидует брату и даже не мечтает занять его место, пока однажды ему не представляется такой шанс.

Качество: WEBRip
Формат: MKV
Видео кодек: H.264
Аудио кодек: AC3
Видео: AVC, 1280x720 (16:9), 25.000 fps, 2600 Kbps (0.112 bit/pixel)
Аудио: AC3, 48000Hz stereo, 192 Kbps, 2 ch
Релиз группы:

MI

General
Complete name : Zvonite.DiKaprio.2018.WEB-DL.720p.ExKinoRay\Zvonite.DiKaprio.(01.seriya).2018.WEB-DL.720p.ExKinoRay.mkv
Format : Matroska
Format version : Version 2
File size : 971 MiB
Duration : 48 min 58 s
Overall bit rate mode : Constant
Overall bit rate : 2 771 kb/s
Movie name : Zvonite.DiKaprio.(01.seriya).2018.WEB-DL.720p.ExKinoRay
Encoded date : UTC 2018-10-19 13:41:41
Writing application : mkvmerge v5.8.0 ('No Sleep / Pillow') built on Sep 2 2012 15:37:04
Writing library : libebml v1.2.3 + libmatroska v1.3.0
Video
ID : 1
Format : AVC
Format/Info : Advanced Video Codec
Format profile : Baseline@L4
Format settings, CABAC : No
Format settings, ReFrames : 4 frames
Format settings, GOP : M=1, N=50
Codec ID : V_MPEG4/ISO/AVC
Duration : 48 min 58 s
Bit rate mode : Constant
Bit rate : 2 600 kb/s
Width : 1 280 pixels
Height : 720 pixels
Display aspect ratio : 16:9
Frame rate mode : Constant
Frame rate : 25.000 FPS
Standard : PAL
Color space : YUV
Chroma subsampling : 4:2:0
Bit depth : 8 bits
Scan type : Progressive
Bits/(Pixel*Frame) : 0.113
Stream size : 884 MiB (91%)
Language : Russian
Default : Yes
Forced : No
Color range : Limited
Color primaries : BT.709
Transfer characteristics : BT.709
Matrix coefficients : BT.709
Audio
ID : 2
Format : AC-3
Format/Info : Audio Coding 3
Mode extension : CM (complete main)
Format settings, Endianness : Big
Codec ID : A_AC3
Duration : 48 min 58 s
Bit rate mode : Constant
Bit rate : 192 kb/s
Channel(s) : 2 channels
Channel positions : Front: L R
Sampling rate : 48.0 kHz
Frame rate : 31.250 FPS (1536 spf)
Bit depth : 16 bits
Compression mode : Lossy
Stream size : 67.2 MiB (7%)
Language : Russian
Default : Yes
Forced : No

Скриншоты

[avg.club].t103427.torrent
 ЗОЛОТАЯ РАЗДАЧА! СКАЧАННОЕ НЕ ЗАСЧИТЫВАЕТСЯ! 
Торрент: Зарегистрирован [ 13.02.2019 21:05 ] · 874580A7F914E18279A9DC9D58446E74257A79DB

Скачать .torrent

Скачать

20 KB

Статус: проверено
Скачан: 0 раз
Размер: 7,1 GB
Доступно: 10 GB
Как тут качать

Показать поблагодаривших

Показать похожие релизы

[Профиль] [ЛС]

Sergey3695

Пол: Мужской

Стаж: 4 года 10 месяцев

Сообщений: 564

Создавать темы 13.Фев.2019 21:20 (спустя 14 минут)

[Цитировать]

Это смотрибельно? я просто увидел тнт и мне прям поплохело.
 

_________________
  
[Профиль] [ЛС]

Ruff ®

Пол: Мужской

Стаж: 4 года 10 месяцев

Сообщений: 336

Создавать темы 13.Фев.2019 21:27 (спустя 7 минут)

[Цитировать]

Sergey3695, очень даже, мне понравилось smile3
[Профиль] [ЛС]

Спахич

Пол: Мужской

Стаж: 4 года 10 месяцев

Сообщений: 304

Создавать темы 17.Фев.2019 15:14 (спустя 3 дня)

[Цитировать]

ну фиг знает, мне как то отвратно было смотреть данный сериал
[Профиль] [ЛС]

Ruff ®

Пол: Мужской

Стаж: 4 года 10 месяцев

Сообщений: 336

Создавать темы 17.Фев.2019 16:36 (спустя 1 час 21 минута)

[Цитировать]

Спахич, что не понравилось?
[Профиль] [ЛС]

scarface

Пол: Мужской

Стаж: 4 года 1 месяц

Сообщений: 61

Откуда: iostream

Создавать темы 17.Фев.2019 21:57 (спустя 5 часов)

[Цитировать]

Такое чувство, что кроме Петрова в России актёров не осталось...
[Профиль] [ЛС]
Показать сообщения:    
Ответить на тему

Текущее время: 18-Авг 14:49

Часовой пояс: UTC + 3



Вы не можете начинать темы
Вы не можете отвечать на сообщения
Вы не можете редактировать свои сообщения
Вы не можете удалять свои сообщения
Вы не можете голосовать в опросах
Вы не можете прикреплять файлы к сообщениям
Вы можете скачивать файлы