Укрощение строптивого / Il bisbetico domato (Франко Кастеллано, Джузеппе Моччиа) [1980 г., Комедия, DVDRip] Дубляж + AVO (Мудров, Живаго) + Original Ita

Ответить на тему
 
Автор Сообщение

Quzoxe ®

Пол: Мужской

Стаж: 4 года 8 месяцев

Сообщений: 3014

Откуда: Burundi

Создавать темы 13.Окт.2014 21:42

[Цитировать]

Укрощение строптивого / Il bisbetico domato- Общая информация:-Год: 1980
Страна: Италия
Жанр: Комедия
Продолжительность: 01:42:26-Режиссер: Франко Кастеллано, Джузеппе Моччиа
В главных ролях: Адриано Челентано, Орнелла Мути, Эдит Питерс, Пиппо Сантонастасо, Милли Карлуччи, Сандро Гиани, Николя Дель Буоно, Винченцо Де Тома, Джимми иль Феномено, Елена Мари...- -Описание:-Категорически не приемлющий женского общества грубоватый фермер вполне счастлив и доволен своей холостяцкой жизнью. Но неожиданно появившаяся в его жизни героиня пытается изменить его взгляды на жизнь и очаровать его. Что же из этого получится…-Особенности релиза:-    » Формат: DVDRip
    » Контейнер: AVI
    » Видео: 720x384 (1.88:1), 25 fps, XviD build 50 ~2024 kbps avg, 0.29 bit/pixel
    » Аудио 1: Russian: 48 kHz, AC3 Dolby Digital, 2/0 (L,R) ch, ~384.00 kbps avg |Советский дубляж*|
    » Аудио 2: Russian: 48 kHz, AC3 Dolby Digital, 2/0 (L,R) ch, ~192.00 kbps avg |Авторский (одноголосый) Андрей Мудров|
    » Аудио 3: Russian: 48 kHz, AC3 Dolby Digital, 2/0 (L,R) ch, ~192.00 kbps avg |Авторский (одноголосый) Николай Живаго|
    » Аудио 4: Italian: 48 kHz, AC3 Dolby Digital, 2/0 (L,R) ch, ~256.00 kbps avg |Оригинальная итальянская|
    » Субтитры: нет
*- В местах, вырезанных советской цензурой, вставлена многоголоска.-

MediaInfo

Общее
Полное имя : E:\AVG.club\Il Bisbetico Domato (Dub, Mudrov, Givago, Ital).avi
Формат : AVI
Формат/Информация : Audio Video Interleave
Профиль формата : OpenDML
Размер файла : 2,05 Гбайт
Продолжительность : 1 ч. 42 м.
Общий поток : 2863 Кбит/сек
Программа кодирования : VirtualDubMod 1.5.10.3 | www.virtualdub-fr.org || (build 2550/release)
Библиотека кодирования : VirtualDubMod build 2550/release
Видео
Идентификатор : 0
Формат : MPEG-4 Visual
Профиль формата : Advanced Simple@L5
Параметр BVOP формата : 2
Параметр QPel формата : Нет
Параметр GMC формата : Без точки перехода
Параметр матрицы формата : Default (H.263)
Идентификатор кодека : XVID
Идентификатор кодека/Подсказка : XviD
Продолжительность : 1 ч. 42 м.
Битрейт : 2000 Кбит/сек
Ширина : 720 пикселей
Высота : 384 пикселя
Соотношение сторон : 1,85:1
Частота кадров : 25,000 кадров/сек
Цветовое пространство : YUV
Субдискретизация насыщенности : 4:2:0
Битовая глубина : 8 бит
Тип развёртки : Прогрессивная
Метод сжатия : С потерями
Бит/(Пиксели*Кадры) : 0.289
Размер потока : 1,43 Гбайт (70%)
Библиотека кодирования : XviD 1.2.1 (UTC 2008-12-04)
Аудио #1
Идентификатор : 1
Формат : AC-3
Формат/Информация : Audio Coding 3
Расширение режима : CM (complete main)
Параметр Endianness формата : Big
Идентификатор кодека : 2000
Продолжительность : 1 ч. 42 м.
Вид битрейта : Постоянный
Битрейт : 192 Кбит/сек
Каналы : 2 канала
Расположение каналов : Front: L R
Частота : 48,0 КГц
Битовая глубина : 16 бит
Метод сжатия : С потерями
Размер потока : 141 Мбайт (7%)
Выравнивание : Разделение по промежуткам
Продолжительность промежутка : 40 мс. (1,00 видеокадр)
Время предзагрузки промежутка : 500 мс.
Аудио #2
Идентификатор : 2
Формат : AC-3
Формат/Информация : Audio Coding 3
Расширение режима : CM (complete main)
Параметр Endianness формата : Big
Идентификатор кодека : 2000
Продолжительность : 1 ч. 42 м.
Вид битрейта : Постоянный
Битрейт : 192 Кбит/сек
Каналы : 2 канала
Расположение каналов : Front: L R
Частота : 48,0 КГц
Битовая глубина : 16 бит
Метод сжатия : С потерями
Размер потока : 141 Мбайт (7%)
Выравнивание : Разделение по промежуткам
Продолжительность промежутка : 40 мс. (1,00 видеокадр)
Время предзагрузки промежутка : 500 мс.
Аудио #3
Идентификатор : 3
Формат : AC-3
Формат/Информация : Audio Coding 3
Расширение режима : CM (complete main)
Параметр Endianness формата : Big
Идентификатор кодека : 2000
Продолжительность : 1 ч. 42 м.
Вид битрейта : Постоянный
Битрейт : 192 Кбит/сек
Каналы : 2 канала
Расположение каналов : Front: L R
Частота : 48,0 КГц
Битовая глубина : 16 бит
Метод сжатия : С потерями
Размер потока : 141 Мбайт (7%)
Выравнивание : Разделение по промежуткам
Продолжительность промежутка : 40 мс. (1,00 видеокадр)
Время предзагрузки промежутка : 500 мс.
Аудио #4
Идентификатор : 4
Формат : AC-3
Формат/Информация : Audio Coding 3
Расширение режима : CM (complete main)
Параметр Endianness формата : Big
Идентификатор кодека : 2000
Продолжительность : 1 ч. 42 м.
Вид битрейта : Постоянный
Битрейт : 256 Кбит/сек
Каналы : 2 канала
Расположение каналов : Front: L R
Частота : 48,0 КГц
Битовая глубина : 16 бит
Метод сжатия : С потерями
Размер потока : 188 Мбайт (9%)
Выравнивание : Разделение по промежуткам
Продолжительность промежутка : 40 мс. (1,00 видеокадр)
Время предзагрузки промежутка : 500 мс.

Скриншоты

 
  
[Профиль] [ЛС]

deodead

Пол: Мужской

Стаж: 6 месяцев 16 дней

Сообщений: 6

Откуда: Комсомольск-на-Амуре

Создавать темы 11.Янв.2019 12:24 (спустя 4 года 2 месяца)

[Цитировать]

За 4 года рейтинг фильма на Кинопоиске вырос с 7,2 до 8,3. Или красивая картинка в стиле трекера или честный рейтинг. Жаль, что нельзя совместить и то, и другое.
[Профиль] [ЛС]

Quzoxe ®

Пол: Мужской

Стаж: 4 года 8 месяцев

Сообщений: 3014

Откуда: Burundi

Создавать темы 11.Янв.2019 13:40 (спустя 1 час 15 минут)

[Цитировать]

deodead, я вообще 10 поставил этому фильму)
 
  
[Профиль] [ЛС]

deodead

Пол: Мужской

Стаж: 6 месяцев 16 дней

Сообщений: 6

Откуда: Комсомольск-на-Амуре

Создавать темы 11.Янв.2019 18:36 (спустя 4 часа)

[Цитировать]

Quzoxe, некоторые фильмы как хорошее вино - становятся лучше со временем. Посмотрим, что будет еще через 4 года.
[Профиль] [ЛС]

xCooLx

Пол: Мужской

Стаж: 3 года 9 месяцев

Сообщений: 41

Откуда: Новосибирск

Создавать темы 11.Янв.2019 20:53 (спустя 2 часа 16 минут)

[Цитировать]

День рождения недавно был его и писали это в СМИ, вот люди при таких новостях ностальгируют и смотрят)
[Профиль] [ЛС]

deodead

Пол: Мужской

Стаж: 6 месяцев 16 дней

Сообщений: 6

Откуда: Комсомольск-на-Амуре

Создавать темы 11.Янв.2019 21:23 (спустя 29 минут)

[Цитировать]


[Профиль] [ЛС]
Показать сообщения:    
Ответить на тему

Текущее время: 16-Июн 17:34

Часовой пояс: UTC + 3



Вы не можете начинать темы
Вы не можете отвечать на сообщения
Вы не можете редактировать свои сообщения
Вы не можете удалять свои сообщения
Вы не можете голосовать в опросах
Вы не можете прикреплять файлы к сообщениям
Вы не можете скачивать файлы