Смерть Сталина / The Death of Stalin (Армандо Ианнуччи) [2017, комедия, BDRip 1080p] DVO

Ответить на тему
 
Автор Сообщение

Evgeny_Mozer ®

Пол: Мужской

Стаж: 4 года 6 месяцев

Сообщений: 465

Откуда: Magnitka City

Создавать темы 24.Фев.2018 04:03

[Цитировать]

««Тоталитарная комедия в вольной трактовке»» Год выпуска: 2017
Страна: Франция, Великобритания, Бельгия
Жанр: комедия
Продолжительность: 01:46:49
Перевод: Любительский (двухголосый) "Колобок"
Режиссёр: Армандо Ианнуччи
В ролях: Ольга Куриленко, Том Брук, Пэдди Консидайн, Джастин Эдвардс, Адриан Маклафлин, Саймон Расселл Бил, Джеффри Тэмбор, Стив Бушеми, Майкл Пэйлин, Пол Рэди
Описание:
СССР, 1953 год. Страна трепещет от страха перед одним человеком. 5 марта Генсек умер. Когда уходит великий вождь, наступает время борьбы за власть. Гонка началась!.. В общем, тоталитарная комедия в вольной трактовке. ТрейлерКачество: BDRip 1080p
Формат: MKV
Видео: 1920х1040p (1,85:1), 24,000 fps, AVC MPEG-4 (x264), High@L4.1, ~ 9 160 Кбит/сек, 0.191 bit/pixel

Aудио#1: Русский: 48 kHz/16 бит, AC3 Dolby Digital, 2/0 (L,R) ch, ~ 192 kbps avg [Любительский (двухголосый), "Колобок"]
Aудио#2: Английский: 48 kHz/24 бит, DTS, 3/2 (L,C,R,l,r) + LFE ch, ~ 1509 kbps avg [Оригинал] ]
Субтитры: Английские

MediaInfo


Общее
Уникальный идентификатор : 219026121520971302398010817836700939297 (0xA4C6E587D75EEB6292EE03F3EB043421)
Полное имя : E:\Закачка-2\The Death of Stalin 2017 BDRip(1080p).mkv
Формат : Matroska
Версия формата : Version 4 / Version 2
Размер файла : 8,09 Гбайт
Продолжительность : 1 ч. 46 м.
Общий поток : 10,9 Мбит/сек
Дата кодирования : UTC 2018-02-23 16:05:31
Программа кодирования : mkvmerge v7.8.0 ('River Man') 32bit built on Mar 27 2015 16:18:02
Библиотека кодирования : libebml v1.3.1 + libmatroska v1.4.2
Видео
Идентификатор : 1
Формат : AVC
Формат/Информация : Advanced Video Codec
Профиль формата : High@L4.1
Параметр CABAC формата : Да
Параметр ReFrames формата : 4 кадра
Идентификатор кодека : V_MPEG4/ISO/AVC
Продолжительность : 1 ч. 46 м.
Битрейт : 9160 Кбит/сек
Ширина : 1920 пикселей
Высота : 1040 пикселей
Соотношение сторон : 1,85:1
Режим частоты кадров : Постоянный
Частота кадров : 24,000 кадра/сек
Цветовое пространство : YUV
Субдискретизация насыщенности : 4:2:0
Битовая глубина : 8 бит
Тип развёртки : Прогрессивная
Бит/(Пиксели*Кадры) : 0.191
Размер потока : 6,66 Гбайт (82%)
Библиотека кодирования : x264 core 155 r2901 7d0ff22
Настройки программы : cabac=1 / ref=4 / deblock=1:-3:-3 / analyse=0x3:0x113 / me=umh / subme=8 / psy=1 / psy_rd=1.00:0.00 / mixed_ref=1 / me_range=32 / chroma_me=1 / trellis=1 / 8x8dct=1 / cqm=0 / deadzone=21,11 / fast_pskip=1 / chroma_qp_offset=-2 / threads=24 / lookahead_threads=4 / sliced_threads=0 / nr=0 / decimate=1 / interlaced=0 / bluray_compat=0 / constrained_intra=0 / bframes=3 / b_pyramid=2 / b_adapt=2 / b_bias=0 / direct=3 / weightb=1 / open_gop=0 / weightp=2 / keyint=240 / keyint_min=24 / scenecut=40 / intra_refresh=0 / rc_lookahead=50 / rc=2pass / mbtree=1 / bitrate=9160 / ratetol=1.0 / qcomp=0.60 / qpmin=0 / qpmax=69 / qpstep=4 / cplxblur=20.0 / qblur=0.5 / ip_ratio=1.40 / aq=3:0.80
Default : Да
Forced : Нет
Аудио #1
Идентификатор : 2
Формат : AC-3
Формат/Информация : Audio Coding 3
Расширение режима : CM (complete main)
Параметр Endianness формата : Big
Идентификатор кодека : A_AC3
Продолжительность : 1 ч. 46 м.
Вид битрейта : Постоянный
Битрейт : 192 Кбит/сек
Каналы : 2 канала
Расположение каналов : Front: L R
Частота : 48,0 КГц
Частота кадров : 31,250 кадров/сек (1536 spf)
Метод сжатия : С потерями
Размер потока : 146 Мбайт (2%)
Язык : Russian
Default : Да
Forced : Нет
Аудио #2
Идентификатор : 3
Формат : DTS
Формат/Информация : Digital Theater Systems
Режим : 16
Параметр Endianness формата : Big
Идентификатор кодека : A_DTS
Продолжительность : 1 ч. 46 м.
Вид битрейта : Постоянный
Битрейт : 1509 Кбит/сек
Каналы : 6 каналов
Расположение каналов : Front: L C R, Side: L R, LFE
Частота : 48,0 КГц
Частота кадров : 93,750 кадра/сек (512 spf)
Битовая глубина : 24 бит
Метод сжатия : С потерями
Размер потока : 1,12 Гбайт (14%)
Язык : English
Default : Нет
Forced : Нет
Текст #1
Идентификатор : 4
Формат : UTF-8
Идентификатор кодека : S_TEXT/UTF8
Идентификатор кодека/Информация : UTF-8 Plain Text
Язык : English
Default : Нет
Forced : Нет
Текст #2
Идентификатор : 5
Формат : UTF-8
Идентификатор кодека : S_TEXT/UTF8
Идентификатор кодека/Информация : UTF-8 Plain Text
Заголовок : SDH
Язык : English
Default : Нет
Forced : Нет
Меню
00:00:00.000 : en:00:00:00.000
00:06:38.875 : en:00:06:38.875
00:13:02.583 : en:00:13:02.583
00:19:53.125 : en:00:19:53.125
00:29:06.125 : en:00:29:06.125
00:33:58.250 : en:00:33:58.250
00:40:22.417 : en:00:40:22.417
00:45:28.000 : en:00:45:28.000
00:50:35.000 : en:00:50:35.000
00:58:40.750 : en:00:58:40.750
01:03:23.667 : en:01:03:23.667
01:12:31.750 : en:01:12:31.750
01:17:42.917 : en:01:17:42.917
01:24:49.000 : en:01:24:49.000
01:33:33.708 : en:01:33:33.708
01:39:25.583 : en:01:39:25.583

Скриншоты:

[Профиль] [ЛС]

Quzoxe

Пол: Мужской

Стаж: 4 года 9 месяцев

Сообщений: 3011

Откуда: Burundi

Создавать темы 24.Фев.2018 11:42 (спустя 7 часов)

[Цитировать]

Evgeny_Mozer, во.. спасибо. ща в Калининград приеду, обязательно скачаю, гляну smile3 good
а то даж интересно стало, чё они там такого поназапрещали?)))
 

_________________
  
[Профиль] [ЛС]

Evgeny_Mozer ®

Пол: Мужской

Стаж: 4 года 6 месяцев

Сообщений: 465

Откуда: Magnitka City

Создавать темы 24.Фев.2018 11:52 (спустя 10 минут)

[Цитировать]

Quzoxe, ничего особенного в фильме нет. как и в случае с Матильдой больше шума из ничего.
[Профиль] [ЛС]
Показать сообщения:    
Ответить на тему

Текущее время: 19-Июл 02:20

Часовой пояс: UTC + 3



Вы не можете начинать темы
Вы не можете отвечать на сообщения
Вы не можете редактировать свои сообщения
Вы не можете удалять свои сообщения
Вы не можете голосовать в опросах
Вы не можете прикреплять файлы к сообщениям
Вы не можете скачивать файлы