Приключения мультяшек: как я провел свои каникулы / Tiny Toon Adventures: How I Spent My Vacation (Рич Эронс) [1992, фэнтези, комедия, приключения, DVDRip-AVC] AVO + Original + Sub

Ответить на тему
 
Автор Сообщение

Zobaken ®

Пол: Мужской

Стаж: 4 года 9 месяцев

Сообщений: 528

Откуда: Эквестрия

Создавать темы 09.Фев.2015 06:35

[Цитировать]

-Приключения мультяшек: как я провел свои каникулы / Как я провел свои каникулы / Tiny Toon Adventures: How I Spent My Vacation- Общая информация:-Название: Приключения мультяшек: как я провел свои каникулы
Оригинальное название: Tiny Toon Adventures: How I Spent My Vacation
Год: 1992
Страна: США
Жанр: фэнтези, комедия, приключения
Продолжительность: 01:19:56
Перевод #1: авторский, одноголосый [Алексей Михалев]
Перевод #2: любительский, одноголосый
Русские субтитры: нет
Режиссер: Рич Эронс, Кен Бойер, Кент Баттерворф
Роли озвучивали: Чарльз Адлер, Тресс МакНилл, Джо Аляски, Дон Мессик, Джонатан Уинтерс, Эди МакКлерг, Фрэнк Уэлкер, Кри Саммер, Соррелл Буке, Роб Полсен- -Описание:-Поросячья семейка Хэмтонов отправляется на своем автомобиле в Диснейлэнд, чтобы прекрасно провести несколько дней в одном из лучших парков мира. Как только они хотели уехать, к ним навязался утенок Плаки. Само собой, путешествия и времяпрепровождения героев будут далеко не идиллическими, незаметными и скучными. По дороге их ожидают всевозможные приключения…-Особенности релиза:-    » Формат: MKV | DVDRip-AVC, 540p
    » Видео: AVC, 720x544 (4:3), 2001 kbps (0.213 b/px), 23.98 fps
    » Аудио:
    » Аудио#1: Russian, AC3, 193 kbps (CBR), 48.0 KHz (16 bits), 2 ch | Авторский, одноголосый [Алексей Михалев]
    » Аудио#2: Russian, AC3, 193 kbps (CBR), 48.0 KHz (16 bits), 2 ch | Любительский, одноголосый
    » Аудио#3: English, AC3, 193 kbps (CBR), 48.0 KHz (16 bits), 2 ch
    » Субтитры: английские, встроенные-MediaInfo:-

MediaInfo

Общее
Уникальный идентификатор                 : 206825281359378059214215862915315598497 (0x9B9919AACFDEA3B0B362A179120904A1)
Полное имя                               : D:\Мультфильмы\Tiny Toon Adventures - How I Spent My Vacation\Tiny.Toon Adv.How.I.Spent.My.Vacation.1992.DVDRipAVC.mkv
Формат                                   : Matroska
Версия формата                           : Version 4 / Version 2
Размер файла                             : 1,43 Гбайт
Продолжительность                        : 1 ч. 19 м.
Общий поток                              : 2559 Кбит/сек
Название фильма                          : Tiny Toon Adventures: How I Spent My Vacation (1992)
Дата кодирования                         : UTC 2014-07-12 15:40:06
Программа кодирования                    : mkvmerge v7.0.0 ('Where We Going') 64bit built on Jun  9 2014 15:16:27
Библиотека кодирования                   : libebml v1.3.0 + libmatroska v1.4.1
Attachements                             : cover.jpg
_STATISTICS_WRITING_APP                  : mkvmerge v7.0.0 ('Where We Going') 64bit built on Jun  9 2014 15:16:27
_STATISTICS_WRITING_DATE_UTC             : 2014-07-12 15:40:06
_STATISTICS_TAGS                         : BPS DURATION NUMBER_OF_FRAMES NUMBER_OF_BYTES
DURATION                                 : 01:19:56.224000000
NUMBER_OF_FRAMES                         : 149882
NUMBER_OF_BYTES                          : 115109376
Видео
Идентификатор                            : 1
Формат                                   : AVC
Формат/Информация                        : Advanced Video Codec
Профиль формата                          : High@L4.1
Параметр CABAC формата                   : Да
Параметр ReFrames формата                : 7 кадров
Идентификатор кодека                     : V_MPEG4/ISO/AVC
Продолжительность                        : 1 ч. 19 м.
Битрейт                                  : 2000 Кбит/сек
Ширина                                   : 720 пикселей
Высота                                   : 544 пикселя
Соотношение сторон                       : 4:3
Режим частоты кадров                     : Постоянный
Частота кадров                           : 23,976 кадра/сек
Цветовое пространство                    : YUV
Субдискретизация насыщенности            : 4:2:0
Битовая глубина                          : 8 бит
Тип развёртки                            : Прогрессивная
Бит/(Пиксели*Кадры)                      : 0.213
Размер потока                            : 1,08 Гбайт (75%)
Заголовок                                : DVDRip-AVC HQ by spalabutyi
Библиотека кодирования                   : x264 core 142 r2431 ac76440
Настройки программы                      : cabac=1 / ref=8 / deblock=1:1:1 / analyse=0x3:0x113 / me=umh / subme=9 / psy=1 / psy_rd=1.00:0.00 / mixed_ref=1 / me_range=32 / chroma_me=1 / trellis=2 / 8x8dct=1 / cqm=0 / deadzone=21,11 / fast_pskip=0 / chroma_qp_offset=-2 / threads=6 / lookahead_threads=1 / sliced_threads=0 / nr=0 / decimate=0 / interlaced=0 / bluray_compat=0 / constrained_intra=0 / bframes=3 / b_pyramid=1 / b_adapt=2 / b_bias=0 / direct=3 / weightb=1 / open_gop=0 / weightp=2 / keyint=23 / keyint_min=2 / scenecut=40 / intra_refresh=0 / rc_lookahead=24 / rc=2pass / mbtree=1 / bitrate=2000 / ratetol=25.0 / qcomp=0.60 / qpmin=0 / qpmax=69 / qpstep=4 / cplxblur=20.0 / qblur=0.5 / vbv_maxrate=62500 / vbv_bufsize=78125 / nal_hrd=none / filler=0 / ip_ratio=1.40 / aq=1:1.00
Язык                                     : English
Default                                  : Да
Forced                                   : Нет
_STATISTICS_WRITING_APP                  : mkvmerge v7.0.0 ('Where We Going') 64bit built on Jun  9 2014 15:16:27
_STATISTICS_WRITING_DATE_UTC             : 2014-07-12 15:40:06
_STATISTICS_TAGS                         : BPS DURATION NUMBER_OF_FRAMES NUMBER_OF_BYTES
DURATION                                 : 01:19:55.958000000
NUMBER_OF_FRAMES                         : 114988
NUMBER_OF_BYTES                          : 1186914997
Аудио #1
Идентификатор                            : 2
Формат                                   : AC-3
Формат/Информация                        : Audio Coding 3
Расширение режима                        : CM (complete main)
Параметр Endianness формата              : Big
Идентификатор кодека                     : A_AC3
Продолжительность                        : 1 ч. 19 м.
Вид битрейта                             : Постоянный
Битрейт                                  : 192 Кбит/сек
Каналы                                   : 2 канала
Расположение каналов                     : Front: L R
Частота                                  : 48,0 КГц
Битовая глубина                          : 16 бит
Метод сжатия                             : С потерями
Размер потока                            : 110 Мбайт (8%)
Заголовок                                : AVO [Алексей Михалев]
Язык                                     : Russian
Default                                  : Нет
Forced                                   : Да
Аудио #2
Идентификатор                            : 3
Формат                                   : AC-3
Формат/Информация                        : Audio Coding 3
Расширение режима                        : CM (complete main)
Параметр Endianness формата              : Big
Идентификатор кодека                     : A_AC3
Продолжительность                        : 1 ч. 19 м.
Вид битрейта                             : Постоянный
Битрейт                                  : 192 Кбит/сек
Каналы                                   : 2 канала
Расположение каналов                     : Front: L R
Частота                                  : 48,0 КГц
Битовая глубина                          : 16 бит
Метод сжатия                             : С потерями
Размер потока                            : 110 Мбайт (8%)
Заголовок                                : L1 [Unknown]
Язык                                     : Russian
Default                                  : Нет
Forced                                   : Нет
Аудио #3
Идентификатор                            : 4
Формат                                   : AC-3
Формат/Информация                        : Audio Coding 3
Расширение режима                        : CM (complete main)
Параметр Endianness формата              : Big
Идентификатор кодека                     : A_AC3
Продолжительность                        : 1 ч. 19 м.
Вид битрейта                             : Постоянный
Битрейт                                  : 192 Кбит/сек
Каналы                                   : 2 канала
Расположение каналов                     : Front: L R
Частота                                  : 48,0 КГц
Битовая глубина                          : 16 бит
Метод сжатия                             : С потерями
Размер потока                            : 110 Мбайт (8%)
Заголовок                                : Original
Язык                                     : English
Default                                  : Да
Forced                                   : Нет
Текст
Идентификатор                            : 5
Формат                                   : UTF-8
Идентификатор кодека                     : S_TEXT/UTF8
Идентификатор кодека/Информация          : UTF-8 Plain Text
Заголовок                                : Original
Язык                                     : English
Default                                  : Нет
Forced                                   : Нет
Меню
00:00:00.000                             : :Chapter 01
00:03:06.367                             : :Chapter 02
00:11:16.335                             : :Chapter 03
00:21:05.102                             : :Chapter 04
00:33:43.269                             : :Chapter 05
00:49:12.402                             : :Chapter 06
00:58:30.402                             : :Chapter 07
01:08:20.602                             : :Chapter 08
01:15:20.503                             : :Chapter 09
01:16:44.371                             : :Chapter 10
01:19:51.538                             : :Chapter 11
-Скриншоты:-

Скриншоты

                                        
[Профиль] [ЛС]
Показать сообщения:    
Ответить на тему

Текущее время: 19-Июл 03:52

Часовой пояс: UTC + 3



Вы не можете начинать темы
Вы не можете отвечать на сообщения
Вы не можете редактировать свои сообщения
Вы не можете удалять свои сообщения
Вы не можете голосовать в опросах
Вы не можете прикреплять файлы к сообщениям
Вы не можете скачивать файлы