Обитель зла: Вендетта / Resident Evil: Vendetta (Таканори Цудзимото) [2017, мультфильм, ужасы, фантастика, HDRip] DUB

Ответить на тему
 
Автор Сообщение

Спахич ®

Пол: Мужской

Стаж: 4 года 9 месяцев

Сообщений: 304

Создавать темы 14.Авг.2017 14:57

[Цитировать]

-Общая информация:-Год выпуска: 2017
Название: Обитель зла: Вендетта
Оригинальное название: Resident Evil: Vendetta
Страна: Япония
Жанр: Мультфильм, ужасы, фантастика, боевик, детектив, приключения
Продолжительность: 01:37:15
Перевод: Профессиональный (полное дублирование) [iTunes]
Субтитры: Нет
Режиссер: Таканори Цудзимото
В главных ролях: Кевин Дорман, Мэттью Мерсер, Эрин Кехилл, Кари Уолгрен, Ариф С. Кинчен, Арни Пантойя, Джон ДеМита, Кристина Валенсуела, Фред Татаскьор, Александр Полински- -Описание:-Специалист B.S.A.A. Крис Редфилд помогает правительственному агенту Леону С. Кеннеди и профессору Ребекке Чемберс из Института биотехнологий. Троице придётся противостоять безумному учёному Эриасу и его армии ходячих мертвецов.-Техническая информация:-Качество: HDRip
Формат: AVI
Видео: 720x400 (1.80:1), 23.976 fps, XviD build 50 ~1618 kbps avg, 0.23 bit/pixel
Аудио: Русский: 48 kHz, AC3 Dolby Digital, 3/2 (L,C,R,l,r) + LFE ch, ~384 kbps-СЭМПЛ

MediaInfo

Общее
Полное имя                               : D:\Видео\ObiTeLL.VenDeTTo.2O17.D.HDRip.14OOMB.avi
Формат                                   : AVI
Формат/Информация                        : Audio Video Interleave
Размер файла                             : 1,37 Гбайт
Продолжительность                        : 1 ч. 37 м.
Общий поток                              : 2012 Кбит/сек
Программа кодирования                    : VirtualDubMod 1.5.10.2 (build 2540/release)
Библиотека кодирования                   : VirtualDubMod build 2540/release
Видео
Идентификатор                            : 0
Формат                                   : MPEG-4 Visual
Профиль формата                          : Advanced Simple@L5
Параметр BVOP формата                    : 2
Параметр QPel формата                    : Нет
Параметр GMC формата                     : Без точки перехода
Параметр матрицы формата                 : Default (MPEG)
Идентификатор кодека                     : XVID
Идентификатор кодека/Подсказка           : XviD
Продолжительность                        : 1 ч. 37 м.
Битрейт                                  : 1619 Кбит/сек
Ширина                                   : 720 пикселей
Высота                                   : 400 пикселей
Соотношение сторон                       : 16:9
Частота кадров                           : 23,976 (24000/1001) кадра/сек
Цветовое пространство                    : YUV
Субдискретизация насыщенности            : 4:2:0
Битовая глубина                          : 8 бит
Тип развёртки                            : Прогрессивная
Метод сжатия                             : С потерями
Бит/(Пиксели*Кадры)                      : 0.234
Размер потока                            : 1,10 Гбайт (80%)
Библиотека кодирования                   : XviD 1.2.1 (UTC 2008-12-04)
Аудио
Идентификатор                            : 1
Формат                                   : AC-3
Формат/Информация                        : Audio Coding 3
Расширение режима                        : CM (complete main)
Параметр Endianness формата              : Big
Идентификатор кодека                     : 2000
Продолжительность                        : 1 ч. 37 м.
Вид битрейта                             : Постоянный
Битрейт                                  : 384 Кбит/сек
Каналы                                   : 6 каналов
Расположение каналов                     : Front: L C R, Side: L R, LFE
Частота                                  : 48,0 КГц
Частота кадров                           : 31,250 кадров/сек (1536 spf)
Метод сжатия                             : С потерями
Размер потока                            : 267 Мбайт (19%)
Выравнивание                             : Разделение по промежуткам
Продолжительность промежутка             : 42  мс. (1,00 видеокадр)
Время предзагрузки промежутка            : 500  мс.

Скриншоты



Последний раз редактировалось: Спахич (13.09.2017 10:45), всего редактировалось 1 раз
[Профиль] [ЛС]

AnonyM

Пол: Мужской

Стаж: 3 года 6 месяцев

Сообщений: 58

Откуда: Киев, Украина

Создавать темы 14.Авг.2017 19:50 (спустя 4 часа)

[Цитировать]

классный мульт
[Профиль] [ЛС]

AlekseyLex

Пол: Мужской

Стаж: 4 года 9 месяцев

Сообщений: 19

Откуда: с автовокзала

Создавать темы 15.Авг.2017 10:29 (спустя 14 часов)

[Цитировать]

тоже понравился. good
 

_________________
 
[Профиль] [ЛС]
Показать сообщения:    
Ответить на тему

Текущее время: 19-Июл 02:56

Часовой пояс: UTC + 3



Вы не можете начинать темы
Вы не можете отвечать на сообщения
Вы не можете редактировать свои сообщения
Вы не можете удалять свои сообщения
Вы не можете голосовать в опросах
Вы не можете прикреплять файлы к сообщениям
Вы не можете скачивать файлы