Напарник (Александр Андрющенко) [2017, комедия, приключения, WEB-DLRip] Original

Ответить на тему
 
Автор Сообщение

Спахич ®

Пол: Мужской

Стаж: 4 года 8 месяцев

Сообщений: 308

Создавать темы 23.Окт.2017 15:38

[Цитировать]

Напарник«Новорождён и очень опасен» -Общая информация:-Год выпуска: 2017
Название: Напарник
Страна: Россия
Жанр: Комедия, приключения
Продолжительность: 01:32:35
Перевод: Оригинал [iTunes]
Субтитры: Нет
Режиссер: Александр Андрющенко
В главных ролях: Сергей Гармаш, Андрей Назимов, Лиза Арзамасова, Ксения Лаврова-Глинка, Ян Цапник, Филипп Яицкий, Андрей Золотарев, Сахат Дурсунов, Евгений Коряковский, Юнчен Жуань- -Описание:-Неудачная спецоперация заканчивается для майора Хромова переселением в тело маленького ребенка. И всему виной проклятие гадалки! Но даже пересев из полицейской машины в детскую коляску, он умудряется доставить немало хлопот преступному синдикату на Дальнем Востоке. При этом мама ребенка не подозревает, что ее сын способен вести жесткие допросы, а папа вынужден стать невольным «напарником» Хромова. Ведь для того, чтобы вернуть все на свои места, им предстоит закончить спецоперацию, а значит, отец с младенцем начинают охоту на самого опасного главаря местной мафии.-Техническая информация:-Качество: WEB-DLRip
Формат: AVI
Видео: 720x304 (2.37:1), 24 fps, XviD build 50 ~1719 kbps avg, 0.33 bit/pixel
Аудио: Русский: 48 kHz, AC3 Dolby Digital, 3/2 (L,C,R,l,r) + LFE ch, ~384 kbps-СЭМПЛ

MediaInfo

Общее
Полное имя                               : D:\Видео\H4p4PH1k.2O17.O.WEB-DLRip.14OOMB.avi
Формат                                   : AVI
Формат/Информация                        : Audio Video Interleave
Размер файла                             : 1,37 Гбайт
Продолжительность                        : 1 ч. 32 м.
Общий поток                              : 2113 Кбит/сек
Название фильма                          : H4p4PH1k.2O17.O.WEB-DLRip.14OOMB
Программа кодирования                    : VirtualDubMod 1.5.10.2 (build 2540/release)
Формат оригинала/Имя                     : Movie
Видео
Идентификатор                            : 0
Формат                                   : MPEG-4 Visual
Профиль формата                          : Advanced Simple@L5
Параметр BVOP формата                    : 2
Параметр QPel формата                    : Нет
Параметр GMC формата                     : Без точки перехода
Параметр матрицы формата                 : Default (MPEG)
Идентификатор кодека                     : XVID
Идентификатор кодека/Подсказка           : XviD
Продолжительность                        : 1 ч. 32 м.
Битрейт                                  : 1720 Кбит/сек
Ширина                                   : 720 пикселей
Высота                                   : 304 пикселя
Соотношение сторон                       : 2,35:1
Частота кадров                           : 24,000 кадра/сек
Цветовое пространство                    : YUV
Субдискретизация насыщенности            : 4:2:0
Битовая глубина                          : 8 бит
Тип развёртки                            : Прогрессивная
Метод сжатия                             : С потерями
Бит/(Пиксели*Кадры)                      : 0.327
Размер потока                            : 1,11 Гбайт (81%)
Библиотека кодирования                   : XviD 1.2.1 (UTC 2008-12-04)
Аудио
Идентификатор                            : 1
Формат                                   : AC-3
Формат/Информация                        : Audio Coding 3
Расширение режима                        : CM (complete main)
Параметр Endianness формата              : Big
Идентификатор кодека                     : 2000
Продолжительность                        : 1 ч. 32 м.
Вид битрейта                             : Постоянный
Битрейт                                  : 384 Кбит/сек
Каналы                                   : 6 каналов
Расположение каналов                     : Front: L C R, Side: L R, LFE
Частота                                  : 48,0 КГц
Частота кадров                           : 31,250 кадров/сек (1536 spf)
Метод сжатия                             : С потерями
Размер потока                            : 254 Мбайт (18%)
Выравнивание                             : Разделение по промежуткам
Продолжительность промежутка             : 42  мс. (1,00 видеокадр)
Время предзагрузки промежутка            : 500  мс.

Скриншоты



Последний раз редактировалось: Спахич (13.11.2017 11:07), всего редактировалось 1 раз
[Профиль] [ЛС]

Lotter

Пол: Мужской

Стаж: 3 года 8 месяцев

Сообщений: 12

Откуда: Украина, Харьков

Создавать темы 24.Окт.2017 23:50 (спустя 1 день 8 часов)

[Цитировать]

Судя по 3 скриншоту, юмор в фильме шикарный.
[Профиль] [ЛС]

dap73

Пол: Мужской

Стаж: 3 года 8 месяцев

Сообщений: 15

Создавать темы 25.Окт.2017 23:30 (спустя 23 часа)

[Цитировать]

бред конечно полный! Но бред прикольный! посмотреть можно!
[Профиль] [ЛС]
Показать сообщения:    
Ответить на тему

Текущее время: 17-Июн 22:02

Часовой пояс: UTC + 3



Вы не можете начинать темы
Вы не можете отвечать на сообщения
Вы не можете редактировать свои сообщения
Вы не можете удалять свои сообщения
Вы не можете голосовать в опросах
Вы не можете прикреплять файлы к сообщениям
Вы не можете скачивать файлы