Кровь и бетон: История любви / Blood and Concrete, a Love Story (Джеффри Рейнер / Jeffrey Reiner) [1991, США, комедия, криминал, HDTVRip] AVO

Ответить на тему
 
Автор Сообщение

Quzoxe ®

Пол: Мужской

Стаж: 4 года 7 месяцев

Сообщений: 3022

Откуда: Burundi

Создавать темы 08.Окт.2014 01:42

[Цитировать]

Кровь и бетон: История любви / Blood and Concrete, a Love Story-Общая информация:-Название: Кровь и бетон: История любви
Оригинальное название: Blood and Concrete, a Love Story
Страна: США
Жанр: комедия, криминал
Год: 1991
Режиссер: Джеффри Рейнер / Jeffrey Reiner
В главных ролях: Билли Зейн, Дженнифер Билз, Дэррен МакГэвин, Джеймс ЛеГро, Марк Пеллегрино, Николас Уорт, Гарри Ширер, Стив Фридман, Патрик Купо- -Описание:-Мона поет в ночном клубе. Джой Теркс — мелкий воришка и аферист, за которым охотится наркоторговец. Истекая кровью, Джой упал к ногам Моны в ту самую минуту, когда она, не найдя счастья в любви, решила перерезать себе вены.-Особенности релиза:-    » Формат: HDTVRip [исходник HDTV 1080i]
    » Видео: 720x400, 25 fps, 1994 kbps, 0.27 bit/pixel, Xvid
    » Аудио: Russian: AC3 Dolby Digital, 48 kHz, 192 kbps, 2/0 (L,R) ch | Авторский (одноголосый закадровый) [Андрей Гаврилов]
    » Субтитры: отсутствуют-

MediaInfo

General
Complete name : Blood.and.Concrete.1991.HDTVRip.Xvid.AC3-Zombie.Lee.avi
Format : AVI
Format/Info : Audio Video Interleave
File size : 1.46 GiB
Duration : 1h 34mn
Overall bit rate : 2 197 Kbps
Writing library : VirtualDub build 33790/release
Video
ID : 0
Format : MPEG-4 Visual
Format profile : Advanced Simple@L5
Format settings, BVOP : 1
Format settings, QPel : No
Format settings, GMC : No warppoints
Format settings, Matrix : Custom
Codec ID : XVID
Codec ID/Hint : XviD
Duration : 1h 34mn
Bit rate : 1 995 Kbps
Width : 720 pixels
Height : 400 pixels
Display aspect ratio : 16:9
Frame rate : 25.000 fps
Color space : YUV
Chroma subsampling : 4:2:0
Bit depth : 8 bits
Scan type : Progressive
Compression mode : Lossy
Bits/(Pixel*Frame) : 0.277
Stream size : 1.32 GiB (91%)
Writing library : XviD 64
Audio
ID : 1
Format : AC-3
Format/Info : Audio Coding 3
Format profile : Dolby Digital
Mode extension : CM (complete main)
Codec ID : 2000
Duration : 1h 34mn
Bit rate mode : Constant
Bit rate : 192 Kbps
Channel(s) : 2 channels
Channel positions : Front: L R
Sampling rate : 48.0 KHz
Bit depth : 16 bits
Compression mode : Lossy
Stream size : 130 MiB (9%)
Alignment : Aligned on interleaves
Interleave, duration : 40 ms (1.00 video frame)
Interleave, preload duration : 512 ms

Скриншоты

 

_________________
  
[Профиль] [ЛС]

Quzoxe ®

Пол: Мужской

Стаж: 4 года 7 месяцев

Сообщений: 3022

Откуда: Burundi

Создавать темы 08.Окт.2014 01:44 (спустя 1 минута)

[Цитировать]

http://coub.com/view/3jy55
http://www.youtube.com/watch?v=w0KIE4k8rBE
sarcastic
всем лучи бобра sunny
 

_________________
  
[Профиль] [ЛС]

Создавать темы 09.Окт.2014 16:06 (спустя 1 день 14 часов)

Топик был перенесен из форума Оформление релизов (кино) в форум Зарубежное кино
Richie Tozier
 
Показать сообщения:    
Ответить на тему

Текущее время: 24-Май 02:19

Часовой пояс: UTC + 3



Вы не можете начинать темы
Вы не можете отвечать на сообщения
Вы не можете редактировать свои сообщения
Вы не можете удалять свои сообщения
Вы не можете голосовать в опросах
Вы не можете прикреплять файлы к сообщениям
Вы не можете скачивать файлы