Человек-паук: Через вселенные / Spider-Man: Into the Spider-Verse (Боб Персичетти и др.) [2018, мультфильм, фантастика, приключения] BDRip 1080p | DUB iTunes + Original | + SUB

Ответить на тему
 
Автор Сообщение

Ruff ®

Пол: Мужской

Стаж: 4 года 9 месяцев

Сообщений: 337

Создавать темы 11.Мар.2019 22:41

[Цитировать]


Человек-паук: Через вселенные / Spider-Man: Into the Spider-Verse
-Год выпуска: 2018
Страна: США
Жанр: Мультфильм, фантастика, комедия, приключения, семейный, полнометражный
Продолжительность: 01:56:50
Перевод: Дублированный | iTunes
Режиссёр: Боб Персичетти, Питер Рэмзи, Родни Ротман
В ролях: Шамеик Мур, Джейк Джонсон, Хейли Стайнфелд, Махершала Али, Брайан Тайри Генри, Лили Томлин, Лорен Велес, Зои Кравиц, Джон Мулэйни, Кимико Гленн, Николас Кейдж, Кэтрин Хан, Лив Шрайбер, Крис Пайн, Натали Моралес, Эдвин Хэбакон, Оскар Айзек, Грета Ли, Стэн Ли, Йорма Такконе
Описание: Мы всё знаем о Питере Паркере. Он спас город, влюбился, а потом спасал город снова и снова… Но все это — в нашем измерении. А что если в результате работы гигантского коллайдера откроется окно из одного измерения в другое? Найдется ли в нем свой Человек-паук? И как он будет выглядеть? Приготовьтесь к тому, что в разных вселенных могут быть разные Люди-пауки и однажды им придется собраться вместе для борьбы с почти непобедимым врагом.-     -Техническая информация:
Качество: BDRip 1080p
Контейнер: MKV
Видео: MPEG-4 AVC, 1920x804, 14.7 Mbit/s, 23.976 fps
]Аудио №1: Русский 48 kHz, AC3, 5.1, 384 Kbps | iTunes
Аудио №2: Английский 48 kHz, DTS, 5.1, 1510 Kbps
Субтитры: Русские (Full), украинские (Full), Английские

MediaInfo


General
Unique ID : 104538015614456995050851142846146912782 (0x4EA54A1A0AC48248E4EE70A8A71BA20E)
Complete name : D:Video111Spider-Man.Into.the.Spider-Verse.2018.BDRip.1080p.seleZen.mkv
Format : Matroska
Format version : Version 4
File size : 13.6 GiB
Duration : 1 h 56 min
Overall bit rate : 16.6 Mb/s
Encoded date : UTC 2019-03-10 22:51:24
Writing application : mkvmerge v31.0.0 ('Dolores In A Shoestand') 64-bit
Writing library : libebml v1.3.6 + libmatroska v1.4.9
Video
ID : 1
Format : AVC
Format/Info : Advanced Video Codec
Format profile : High@L4.1
Format settings : CABAC / 5 Ref Frames
Format settings, CABAC : Yes
Format settings, ReFrames : 5 frames
Codec ID : V_MPEG4/ISO/AVC
Duration : 1 h 56 min
Bit rate : 14.7 Mb/s
Width : 1 920 pixels
Height : 804 pixels
Display aspect ratio : 2.40:1
Frame rate mode : Constant
Frame rate : 23.976 (24000/1001) FPS
Color space : YUV
Chroma subsampling : 4:2:0
Bit depth : 8 bits
Scan type : Progressive
Bits/(Pixel*Frame) : 0.398
Stream size : 12.0 GiB (89%)
Title : MTeam
Writing library : x264 core 157 r2938 2b00a84 TnP@MTeam Mod
Encoding settings : cabac=1 / ref=5 / deblock=1:-1:-1 / analyse=0x3:0x133 / me=umh / subme=10 / psy=1 / psy_rd=1.05:0.00 / mixed_ref=1 / me_range=24 / chroma_me=1 / trellis=2 / 8x8dct=1 / cqm=0 / deadzone=21,11 / fast_pskip=0 / chroma_qp_offset=-2 / threads=12 / lookahead_threads=2 / sliced_threads=0 / nr=0 / decimate=0 / interlaced=0 / bluray_compat=0 / constrained_intra=0 / bframes=8 / b_pyramid=2 / b_adapt=2 / b_bias=0 / direct=3 / weightb=1 / open_gop=0 / weightp=2 / keyint=250 / keyint_min=24 / scenecut=40 / intra_refresh=0 / rc_lookahead=250 / rc=crf / mbtree=0 / crf=16.2 / qcomp=0.60 / qpmin=0 / qpmax=69 / qpstep=4 / vbv_maxrate=62500 / vbv_bufsize=78125 / crf_max=0.0 / nal_hrd=none / filler=0 / ip_ratio=1.30 / pb_ratio=1.20 / aq=1:0.90
Language : English
Default : Yes
Forced : No
Color range : Limited
Color primaries : BT.709
Matrix coefficients : BT.709
Audio #1
ID : 2
Format : AC-3
Format/Info : Audio Coding 3
Commercial name : Dolby Digital
Codec ID : A_AC3
Duration : 1 h 56 min
Bit rate mode : Constant
Bit rate : 384 kb/s
Channel(s) : 6 channels
Channel layout : L R C LFE Ls Rs
Sampling rate : 48.0 kHz
Frame rate : 31.250 FPS (1536 SPF)
Bit depth : 16 bits
Compression mode : Lossy
Stream size : 321 MiB (2%)
Title : Dub [iTunes]
Language : Russian
Service kind : Complete Main
Default : Yes
Forced : Yes
Audio #2
ID : 3
Format : DTS
Format/Info : Digital Theater Systems
Codec ID : A_DTS
Duration : 1 h 56 min
Bit rate mode : Constant
Bit rate : 1 509 kb/s
Channel(s) : 6 channels
Channel layout : C L R Ls Rs LFE
Sampling rate : 48.0 kHz
Frame rate : 93.750 FPS (512 SPF)
Bit depth : 16 bits
Compression mode : Lossy
Stream size : 1.23 GiB (9%)
Title : Original
Language : English
Default : No
Forced : No
Text #1
ID : 4
Format : UTF-8
Codec ID : S_TEXT/UTF8
Codec ID/Info : UTF-8 Plain Text
Duration : 1 h 55 min
Bit rate : 82 b/s
Count of elements : 1467
Stream size : 70.3 KiB (0%)
Title : Full [iTunes]
Language : Russian
Default : No
Forced : No
Text #2
ID : 5
Format : UTF-8
Codec ID : S_TEXT/UTF8
Codec ID/Info : UTF-8 Plain Text
Duration : 1 h 55 min
Bit rate : 81 b/s
Count of elements : 1468
Stream size : 68.9 KiB (0%)
Title : Full [iTunes]
Language : Ukrainian
Default : No
Forced : No
Text #3
ID : 6
Format : UTF-8
Codec ID : S_TEXT/UTF8
Codec ID/Info : UTF-8 Plain Text
Duration : 1 h 55 min
Bit rate : 54 b/s
Count of elements : 1389
Stream size : 46.4 KiB (0%)
Title : Full [iTunes]
Language : English
Default : No
Forced : No
Menu
00:00:00.000 : en:Chapter 01
00:09:03.793 : en:Chapter 02
00:14:04.719 : en:Chapter 03
00:18:51.714 : en:Chapter 04
00:29:39.027 : en:Chapter 05
00:34:14.636 : en:Chapter 06
00:40:34.432 : en:Chapter 07
00:44:22.827 : en:Chapter 08
00:48:06.884 : en:Chapter 09
00:58:45.855 : en:Chapter 10
01:06:04.460 : en:Chapter 11
01:09:55.483 : en:Chapter 12
01:20:00.003 : en:Chapter 13
01:24:54.923 : en:Chapter 14
01:33:33.399 : en:Chapter 15
01:55:26.920 : en:Chapter 16

Скриншоты

            
[Профиль] [ЛС]

jeycon

Пол: Мужской

Стаж: 4 года 2 месяца

Сообщений: 130

Откуда: Севастополь

Создавать темы 12.Мар.2019 20:37 (спустя 21 час)

[Цитировать]

Странно, что такие высокие оценки. Даже племяшка больше получаса не выдержала. dntknw
 

_________________
 
[Профиль] [ЛС]

t1coon

Пол: Мужской

Стаж: 4 года 9 месяцев

Сообщений: 259

Создавать темы 12.Мар.2019 20:49 (спустя 11 минут)

[Цитировать]

301530Странно, что такие высокие оценки. Даже племяшка больше получаса не выдержала. dntknw
Высокие оценки от тех кто в теме происходящего. Это очень хорошо видно по выходящим людям из зала после окончания фильмов марвел. Для них это просто очередной фильм не о чем, а для фанатов огромная вселенная
 

_________________
 
[Профиль] [ЛС]

Sergey3695

Пол: Мужской

Стаж: 4 года 9 месяцев

Сообщений: 549

Создавать темы 12.Мар.2019 21:32 (спустя 43 минуты)

[Цитировать]

301535от тех кто в теме происходящего

Кто эти люди? sarcastic
 
  
[Профиль] [ЛС]

Ma3xZ

Пол: Мужской

Стаж: 4 года 9 месяцев

Сообщений: 787

Откуда: Night City

Создавать темы 12.Мар.2019 22:54 (спустя 1 час 21 минута)

[Цитировать]

Sergey3695, например я, пипкун и свин-паук prankster
 
   
[Профиль] [ЛС]

A1kaida

Пол: Мужской

Стаж: 4 года 9 месяцев

Сообщений: 80

Откуда: Волгоград

Создавать темы 14.Мар.2019 07:00 (спустя 1 день 8 часов)

[Цитировать]

из-за "рисовки" смотреть не смог... будто тормозит все
 

_________________
 
[Профиль] [ЛС]
Показать сообщения:    
Ответить на тему

Текущее время: 19-Июл 04:56

Часовой пояс: UTC + 3



Вы не можете начинать темы
Вы не можете отвечать на сообщения
Вы не можете редактировать свои сообщения
Вы не можете удалять свои сообщения
Вы не можете голосовать в опросах
Вы не можете прикреплять файлы к сообщениям
Вы не можете скачивать файлы