Результатов поиска: 6

Автор Сообщение

8ad_R060d

Создавать темы 28.Апр.2015 23:40

[Цитировать]

Ailo - Concepts- Жанр: Downtempo, Ambient
Год выпуска: 2007
Источник: CD
Производитель: Germany, Iono Music ‎– IONO 11
Аудиокодек: FLAC
Тип рипа: Image+.CUE
Битрейт: lossless
Продолжительность: 01:14:44-Треклист:
01. Chronos
02. You
03. Contribution for a healthier mind
04. Subculture
05. Value of life
06. Mrs. Annoying
07. Vibraless
08. Kiwi
09. Dewdrop
10. Yoohoo (l.u.)
11. Equilibria Etheria

EAC


Exact Audio Copy V0.99 prebeta 4 from 23. January 2008
EAC extraction logfile from 1. March 2009, 10:30
Ailo / Concepts
Used drive  : TSSTcorpCDDVDW SH-S223Q   Adapter: 2  ID: 0
Read mode               : Secure
Utilize accurate stream : Yes
Defeat audio cache      : Yes
Make use of C2 pointers : No
Read offset correction                      : 6
Overread into Lead-In and Lead-Out          : No
Fill up missing offset samples with silence : Yes
Delete leading and trailing silent blocks   : No
Null samples used in CRC calculations       : Yes
Used interface                              : Installed external ASPI interface
Used output format              : User Defined Encoder
Selected bitrate                : 1024 kBit/s
Quality                         : High
Add ID3 tag                     : No
Command line compressor         : C:\Program Files\Exact Audio Copy\Flac\flac.exe
Additional command line options : -8 -V -T "ARTIST=%a" -T "ALBUM=%g" -T "DATE=%y" -T "GENRE=%m"  %s -o %d
TOC of the extracted CD
     Track |   Start  |  Length  | Start sector | End sector
    ---------------------------------------------------------
        1  |  0:00.00 |  6:05.02 |         0    |    27376
        2  |  6:05.02 |  6:46.53 |     27377    |    57879
        3  | 12:51.55 |  7:45.00 |     57880    |    92754
        4  | 20:36.55 |  8:12.66 |     92755    |   129720
        5  | 28:49.46 |  7:43.44 |    129721    |   164489
        6  | 36:33.15 |  5:35.39 |    164490    |   189653
        7  | 42:08.54 |  6:44.70 |    189654    |   220023
        8  | 48:53.49 |  5:31.00 |    220024    |   244848
        9  | 54:24.49 |  6:29.70 |    244849    |   274093
       10  | 60:54.44 |  7:13.44 |    274094    |   306612
       11  | 68:08.13 |  6:36.00 |    306613    |   336312
Range status and errors
Selected range
     Filename C:\Ailo - Concepts.wav
     Peak level 97.7 %
     Range quality 100.0 %
     Test CRC DF318809
     Copy CRC DF318809
     Copy OK
No errors occurred
AccurateRip summary
Track  1  not present in database
Track  2  not present in database
Track  3  not present in database
Track  4  not present in database
Track  5  not present in database
Track  6  not present in database
Track  7  not present in database
Track  8  not present in database
Track  9  not present in database
Track 10  not present in database
Track 11  not present in database
None of the tracks are present in the AccurateRip database
End of status report

.CUE


REM GENRE "Downtempo, Ambient"
REM DATE 2007
REM DISCID 9D11840B
REM COMMENT "ExactAudioCopy v0.99pb4"
PERFORMER "Ailo"
TITLE "Concepts"
FILE "Ailo - Concepts.flac" WAVE
  TRACK 01 AUDIO
    TITLE "Chronos"
    PERFORMER "Ailo"
    INDEX 01 00:00:00
  TRACK 02 AUDIO
    TITLE "You"
    PERFORMER "Ailo"
    INDEX 00 06:04:02
    INDEX 01 06:05:02
  TRACK 03 AUDIO
    TITLE "Contribution for a healthier mind"
    PERFORMER "Ailo"
    INDEX 00 12:50:55
    INDEX 01 12:51:55
  TRACK 04 AUDIO
    TITLE "Subculture"
    PERFORMER "Ailo"
    INDEX 00 20:35:55
    INDEX 01 20:36:55
  TRACK 05 AUDIO
    TITLE "Value of life"
    PERFORMER "Ailo"
    INDEX 00 28:48:46
    INDEX 01 28:49:46
  TRACK 06 AUDIO
    TITLE "Mrs. Annoying"
    PERFORMER "Ailo"
    INDEX 00 36:32:15
    INDEX 01 36:33:15
  TRACK 07 AUDIO
    TITLE "Vibraless"
    PERFORMER "Ailo"
    INDEX 00 42:07:54
    INDEX 01 42:08:54
  TRACK 08 AUDIO
    TITLE "Kiwi"
    PERFORMER "Ailo"
    INDEX 00 48:52:49
    INDEX 01 48:53:49
  TRACK 09 AUDIO
    TITLE "Dewdrop"
    PERFORMER "Ailo"
    INDEX 00 54:23:49
    INDEX 01 54:24:49
  TRACK 10 AUDIO
    TITLE "Yoohoo (l.u.)"
    PERFORMER "Ailo"
    INDEX 00 60:53:44
    INDEX 01 60:54:44
  TRACK 11 AUDIO
    TITLE "Equilibria Etheria"
    PERFORMER "Ailo"
    INDEX 00 68:07:13
    INDEX 01 68:08:13

О диске..

-
Iono Music представляет первую часть серии «private rooms», которую открывает долгожданная работа от греческого дуэта Ailo. Их даунбит альбом Concepts состоит из 11 бесконечных треков, соединивших в себе элементы востока и западных технологий. Они выражают идеи, которые не ослабевают с течением времени, комбинируют звуки, электронные и физические, в диахронических процессах, которые взывают к внутренним чувствам и глубинным эмоциям.
Этот альбом настроит Вас на волну бесконечного воображения и, как результат, эта музыка расслабит Вас полностью и зарядит положительной энергией. Concepts с его страстными чувствительными аранжировками, а также абсолютно свежим звучанием и с его гомогенным грувом - он похож на бальзам для Вашей аудиофильной души.
И Вы будете слушать его не один раз! Уж поверьте!

Ma3xZ

Создавать темы 19.Апр.2015 23:23

[Цитировать]

-«MIRRORS FADED CLOUDS MUSIC»- ОБЩАЯ ИНФОРМАЦИЯ:-Жанр: Ambient, Instrumentals
Страна: Россия
Год выпуска: 2014-2015
Тип издания: Компиляция
Формат: MP3
Тип рипа: tracks
Битрейт аудио: CBR (128-320 kbps)
Продолжительность: 00:45:14
Источник: VK-ТРЕКЛИСТ:-01. 7 Days (08:22)
02. 19 April (01:37)
03. Annabelle (03:54)
04. Crystal Christmas (03:49)
05. Meteor Rain (03:43)
06. Mother (04:25)
07. Old Sun (04:29)
08. Raven's Death (03:09)
09. Requiem For A Pipe Dreams (01:03)
10. Skyline (03:22)
11. Water Me (04:26)
12. Your Ocean (03:01)
- -

bot

Создавать темы 14.Мар.2015 10:43

[Цитировать]

Топик был перенесен из форума Оформление релизов (музыка) в форум New Age, Chillout, музыка для медитации
nouveaux

Zobaken

Создавать темы 13.Мар.2015 15:36

[Цитировать]

Globus - Epicon- Жанр: New Age, Epic Music, Cinematic Rock, Classical Crossover, Orchestral, Choral
Год издания: 2006
Страна исполнителя (группы): USA-Аудио кодек: APE
Тип рипа: tracks+.cue
Битрейт аудио: lossless
Продолжительность: 01:11:43-Треклист:
01. Globus - Preliator
02. Globus - Mighty Rivers Run
03. Globus - On Earth as in Heaven
04. Globus - Spiritus Khayyam
05. Globus - La Coronacion
06. Globus - Europa
07. Globus - Diem Ex Dei
08. Globus - Orchard of Mines
09. Globus - Crusaders of the Light
10. Globus - Madre Terra
11. Globus - Illumination
12. Globus - Take Me Away
13. Globus - Sarabande Suite
14. Globus - Porque Te Vas-

Extraction Log

Archivo Log de extracciones desde 1. Junio 2007, 22:36 para el CD
Globus / EPICON
Usar unidad  : HL-DT-STDVD-RAM GSA-H20L   Adapter: 1  ID: 1
Modo de Lectura   : Seguro SIN C2, CON 'Corriente Exacta', CON cachй desactivada
Correcciуn de Desplazamiento de Lectura : 102
Sobreleer tanto en Lead-In como en Lead-Out : No
Formato de Salida utilizado : Rutinas WAV Internas
                     44.100 Hz; 16 Bit; Estйreo
Otras opciones      :
    Rellenar las muestras faltantes con silencios : Sн
    Eliminar silencios inicial y final : No
    Interfaz ASPI externo instalado
Gama de estados y errores
Seleccionar gama
     Nombre de Archivo E:\EPICON_Globus\Globus - EPICON.wav
     Nivel Pico 95.4 %
     Gama de Calidad 100.0 %
     CRC 05BC64CE
     Copia OK
Sin Errores
Final del Informe

О группе

-GLOBUS- «Globus» («Globus Music») — музыкальный проект продюсера и композитора Йоав Горена, микс музыкантов и вокалистов, также можно сказать, что это коммерческое имя известной компании музыкального продакшена «Immediate Music». Главные композиторы: Йоав Горен и Джеффри Феймен.
«Globus» был создан в 2006 году в ответ на просьбы к «Immediate Music» сделать доступными свои композиции для широкой общественности на обычных CD.
Группа «Globus» объединяет драматичную, кинематографическую, эпическую оркестрово-хоровую музыку с современными и мировыми музыкальными стилями и ритмами (рок, поп, классика и этника). Являются пионерами нового жанра — эпического рока (Epic Rock), также называют кинематографическим роком (Cinematic Rock).

bot

Создавать темы 18.Окт.2014 13:33

[Цитировать]

Топик был перенесен из форума Оформление релизов (музыка) в форум Зарубежная поп-музыка
nouveaux

Zobaken

Создавать темы 17.Окт.2014 13:48

[Цитировать]

Enya - The Very Best of Enya- Жанр: New Age
Год издания: 2009
Страна исполнителя (группы): Великобритания
Лейбл: Warner Music UK, EU-Аудио кодек: FLAC
Тип рипа: tracks+.cue
Битрейт аудио: lossless
Продолжительность: 01:19:57-Треклист:
01. Trains and Winter Rains
02. My! My! Time Flies!
03. Stars and Midnight Blue
04. Amarantine
05. Sumiregusa
06. The River Sings
07. If I Could Be Where You Are
08. Wild Child
09. Only Time
10. Drifting
11. Flora's Secret
12. Fallen Embers
13. One By One
14. Pax Deorum
15. Athair ar Neamh
16. Anywhere Is
17. Orinoco Flow
18. Watermark
19. Boadicea
20. May It Be
21. Carribbean Blue
22. Aniron (I Desire) *Theme for Aragorn & Arwen-

Дополнительно

Deluxe Edition сборника The Very Best of Enya содержит расширенный набор специально подобранных песен (22 против 18 в обычной версии), созданных Энией, поэтессой Рома Раян и продюссером Ники Раяном за двадцать лет их совместной карьеры.

Отчёт EAC

Exact Audio Copy V0.99 prebeta 5 from 4. May 2009
Отчёт EAC об извлечении, выполненном 15. декабря 2009, 19:30
Enya / The Very Best Of
Дисковод: Optiarc DVD RW AD-7203A Adapter: 4 ID: 1
Режим чтения : Достоверность
Использование точного потока : Да
Отключение кэша аудио : Да
Использование указателей C2 : Нет
Коррекция смещения при чтении : 48
Способность читать области Lead-in и Lead-out : Нет
Заполнение пропущенных сэмплов тишиной : Да
Удаление блоков с тишиной в начале и конце : Нет
При вычислениях CRC использовались нулевые сэмплы : Да
Интерфейс : Встроенный Win32-интерфейс для Win NT/2000
Выходной формат : Пользовательский кодировщик
Выбранный битрейт : 128 kBit/s
Качество : Высокий
Добавление ID3-тэга : Нет
Утилита сжатия : C:\Program Files\FLAC\flac.exe
Дополнительные параметры : -5 -V %s
TOC извлечённого CD
Трек | Старт | Длительность | Начальный сектор | Конечный сектор
---------------------------------------------------------------------
1 | 0:00.00 | 3:44.03 | 0 | 16802
2 | 3:44.03 | 3:00.71 | 16803 | 30373
3 | 6:44.74 | 3:07.62 | 30374 | 44460
4 | 9:52.61 | 3:11.67 | 44461 | 58852
5 | 13:04.53 | 4:40.05 | 58853 | 79857
6 | 17:44.58 | 2:48.17 | 79858 | 92474
7 | 20:33.00 | 3:59.67 | 92475 | 110466
8 | 24:32.67 | 3:47.70 | 110467 | 127561
9 | 28:20.62 | 3:38.00 | 127562 | 143911
10 | 31:58.62 | 4:10.47 | 143912 | 162708
11 | 36:09.34 | 4:06.44 | 162709 | 181202
12 | 40:16.03 | 2:29.65 | 181203 | 192442
13 | 42:45.68 | 3:53.43 | 192443 | 209960
14 | 46:39.36 | 4:58.30 | 209961 | 232340
15 | 51:37.66 | 3:41.47 | 232341 | 248962
16 | 55:19.38 | 3:58.61 | 248963 | 266873
17 | 59:18.24 | 4:26.71 | 266874 | 286894
18 | 63:45.20 | 2:25.38 | 286895 | 297807
19 | 66:10.58 | 3:31.63 | 297808 | 313695
20 | 69:42.46 | 3:32.53 | 313696 | 329648
21 | 73:15.24 | 3:59.23 | 329649 | 347596
22 | 77:14.47 | 2:43.16 | 347597 | 359837
Характеристики диапазона извлечения и сообщения об ошибках
Выбранный диапазон
Имя файла D:\EAC\Enya - The Very Best Of.wav
Пиковый уровень 100.0 %
Качество диапазона 100.0 %
CRC теста C15902A9
CRC копии C15902A9
Копирование... OK
Ошибок не произошло
AccurateRip: сводка
Трек 1 нет в базе данных
Трек 2 нет в базе данных
Трек 3 нет в базе данных
Трек 4 нет в базе данных
Трек 5 нет в базе данных
Трек 6 нет в базе данных
Трек 7 нет в базе данных
Трек 8 нет в базе данных
Трек 9 нет в базе данных
Трек 10 нет в базе данных
Трек 11 нет в базе данных
Трек 12 нет в базе данных
Трек 13 нет в базе данных
Трек 14 нет в базе данных
Трек 15 нет в базе данных
Трек 16 нет в базе данных
Трек 17 нет в базе данных
Трек 18 нет в базе данных
Трек 19 нет в базе данных
Трек 20 нет в базе данных
Трек 21 нет в базе данных
Трек 22 нет в базе данных
Ни одного трека нет в базе AccurateRip
Конец отчёта
 

Текущее время: 26-Июн 11:03

Часовой пояс: UTC + 3