Результатов поиска: 15

Автор Сообщение

bot

Создавать темы 15.Авг.2016 11:34

[Цитировать]

Топик был перенесен из форума Оформление релизов (музыка) в форум Джаз, блюз
nouveaux

Xardasi

Создавать темы 30.Июл.2016 20:58

[Цитировать]

-Исполнитель: Bohemianvoodoo
Год выпуска: 2014
Страна: Япония
Жанр: Jazz, Jazz Fusion
-Аудио кодек: MP3
Тип рипа: tracks
Битрейт аудио: 320kbps
Продолжительность: 1:07:19-Трэклист:
01. Bohemianvoodoo - Seven Color Days
02. Bohemianvoodoo - El Ron Zacapa
03. Bohemianvoodoo - Cardamom
04. Bohemianvoodoo - Mothertree (feat. Aki Sawazaki)
05. Bohemianvoodoo - Families
06. Bohemianvoodoo - Ferris Wheel
07. Bohemianvoodoo - Cleopatra's Dream
08. Bohemianvoodoo - Skyroad
09. Bohemianvoodoo - Relation Ship (feat. Hiro-a-key)
10. Bohemianvoodoo - Father And Bookshelf
11. Bohemianvoodoo - A Peacock
12. Bohemianvoodoo - Jet Setter
13. Bohemianvoodoo - Flyaway-

K1riLL

Создавать темы 15.Июл.2016 22:28

[Цитировать]

-Исполнитель: Jason Paulson
Альбом: Crow River Ramble
Год издания: 2016
Жанр: Country-Аудио кодек: MP3
Тип рипа: tracks
Битрейт аудио: 320kbps
Продолжительность: 00:36:18-Tracklist:
01. Bad Habits
02. I Don't Wanna Go Home
03. Can't Get Enough
04. Home To You
05. Close Your Eyes
06. Cold In California
07. Lonely
08. Love
09. The Train
10. Long Way To Run
11. Mysterious
12. Love That You Leave Behind

K1riLL

Создавать темы 13.Июл.2016 01:28

[Цитировать]

-Исполнитель: The Will Johns Band
Альбом: Hooks And Lines
Год издания: 2012
Жанр: Blues-Аудио кодек: MP3
Тип рипа: tracks
Битрейт аудио: 320kbps
Продолжительность: 00:51:12-Tracklist:
01. I Believe
02. Angel
03. Wake Up
04. Tight!
05. Let's Party
06. Kissing You
07. Skool
08. Never Rains
09. I Don't Love You
10. Keep On Going
11. Smuggler's Blues
12. Need Your Love So Bad

K1riLL

Создавать темы 13.Июл.2016 01:12

[Цитировать]

-Исполнитель: Will Johns
Альбом: Something Old, Something New...
Год издания: 2016
Жанр: Blues-Аудио кодек: MP3
Тип рипа: tracks
Битрейт аудио: 320kbps
Продолжительность: 00:42:02-Tracklist:
01. Will Johns - Action
02. Will Johns - All That Glitters
03. Will Johns - Blues Police
04. Will Johns - Into Your Love
05. Will Johns - Last Page
06. Will Johns - Lucy's Kitchen
07. Will Johns - Mousetails
08. Will Johns - Righteous Road
09. Will Johns - Tears of a Butterfly (feat. Oyme)
10. Will Johns - Turn It On
11. Will Johns - Won't Go Down

bot

Создавать темы 24.Мар.2016 11:50

[Цитировать]

Топик был перенесен из форума Оформление релизов (музыка) в форум Джаз, блюз
nouveaux

8ad_R060d

Создавать темы 24.Мар.2016 10:53

[Цитировать]

Silent Poets - Words And Silence- Жанр: Acid Jazz, Trip Hop, Downtempo
Год выпуска: 1994
Источник: CD
Производитель: UK, Bellissima Records ‎– BLR-2001
Аудиокодек: FLAC
Тип рипа: Tracks+.CUE
Битрейт: lossless
Продолжительность: 00:51:38-Треклист:
  • Intro
  • La Vie
  • The Children Of The Future
  • Break In The Circle
  • Shalom
  • Farewell
  • Le Possédé
  • A Little Way Of Difference
  • Inquizative, Derivative
  • Quiet Bird

Лог создания рипа


X Lossless Decoder version 20110312 (130.0)
XLD extraction logfile from 2011-04-15 12:50:33 -0700
Silent Poets / Words and Silence
Used drive : MATSHITA DVD-R   UJ-898 (revision HC10)
Ripper mode             : CDParanoia III 10.2
Disable audio cache     : OK for the drive with a cache less than 2750KiB
Make use of C2 pointers : NO
Read offset correction  : 102
Max retry count         : 100
Gap status              : Analyzed, Appended
TOC of the extracted CD
     Track |   Start  |  Length  | Start sector | End sector
    ---------------------------------------------------------
        1  | 00:00:00 | 00:59:12 |         0    |     4436
        2  | 00:59:12 | 05:35:60 |      4437    |    29621
        3  | 06:34:72 | 04:27:33 |     29622    |    49679
        4  | 11:02:30 | 06:33:70 |     49680    |    79224
        5  | 17:36:25 | 06:32:45 |     79225    |   108669
        6  | 24:08:70 | 04:38:37 |    108670    |   129556
        7  | 28:47:32 | 05:36:38 |    129557    |   154794
        8  | 34:23:70 | 05:37:62 |    154795    |   180131
        9  | 40:01:57 | 05:02:68 |    180132    |   202849
       10  | 45:04:50 | 06:31:25 |    202850    |   232199
List of alternate offset correction values
        #  | Absolute | Relative | Confidence
    ------------------------------------------
        1  |   -759   |   -861   |      3
AccurateRip Summary
    Track 01 : OK (confidence 3, with different offset)
    Track 02 : OK (confidence 3, with different offset)
    Track 03 : OK (confidence 3, with different offset)
    Track 04 : OK (confidence 3, with different offset)
    Track 05 : OK (confidence 3, with different offset)
    Track 06 : OK (confidence 3, with different offset)
    Track 07 : OK (confidence 3, with different offset)
    Track 08 : OK (confidence 3, with different offset)
    Track 09 : OK (confidence 3, with different offset)
    Track 10 : OK (confidence 3, with different offset)
        ->All tracks accurately ripped.
All Tracks
    Album gain             : -4.25 dB
    Peak                   : 1.000000
    Statistics
        Read error                           : 0
        Skipped (treated as error)           : 0
        Edge jitter error (maybe fixed)      : 0
        Atom jitter error (maybe fixed)      : 0
        Drift error (maybe fixed)            : 0
        Dropped bytes error (maybe fixed)    : 0
        Duplicated bytes error (maybe fixed) : 0
Track 01
    Filename : /Users/Shared/FLACs/Silent Poets - Words and Silence (1994) [FLAC]/01 Intro.flac
    Pre-gap length : 00:02:00
    Track gain             : 2.59 dB
    Peak                   : 0.807343
    CRC32 hash (test run)  : 21503575
    CRC32 hash             : 21503575
    CRC32 hash (skip zero) : 513C2D55
    AccurateRip signature  : 6C1B1DC6
        ->Accurately ripped! (confidence 3)
          (matched with the different offset correction value;
           calculated using an additional offset of -861;
           the signature after correction is: A7F52698)
    Statistics
        Read error                           : 0
        Skipped (treated as error)           : 0
        Edge jitter error (maybe fixed)      : 0
        Atom jitter error (maybe fixed)      : 0
        Drift error (maybe fixed)            : 0
        Dropped bytes error (maybe fixed)    : 0
        Duplicated bytes error (maybe fixed) : 0
        Inconsistency in error sectors       : 0
Track 02
    Filename : /Users/Shared/FLACs/Silent Poets - Words and Silence (1994) [FLAC]/02 La Vie.flac
    Track gain             : -2.99 dB
    Peak                   : 1.000000
    CRC32 hash (test run)  : 9BB3903D
    CRC32 hash             : 9BB3903D
    CRC32 hash (skip zero) : F68DA108
    AccurateRip signature  : 1936FCEB
        ->Accurately ripped! (confidence 3)
          (matched with the different offset correction value;
           calculated using an additional offset of -861;
           the signature after correction is: 77D60E80)
    Statistics
        Read error                           : 0
        Skipped (treated as error)           : 0
        Edge jitter error (maybe fixed)      : 0
        Atom jitter error (maybe fixed)      : 0
        Drift error (maybe fixed)            : 0
        Dropped bytes error (maybe fixed)    : 0
        Duplicated bytes error (maybe fixed) : 0
        Inconsistency in error sectors       : 0
Track 03
    Filename : /Users/Shared/FLACs/Silent Poets - Words and Silence (1994) [FLAC]/03 The Children Of The Future.flac
    Pre-gap length : 00:02:05
    Track gain             : -4.14 dB
    Peak                   : 0.995819
    CRC32 hash (test run)  : 2F912DED
    CRC32 hash             : 2F912DED
    CRC32 hash (skip zero) : 57A11A2A
    AccurateRip signature  : 2C837620
        ->Accurately ripped! (confidence 3)
          (matched with the different offset correction value;
           calculated using an additional offset of -861;
           the signature after correction is: 85018501)
    Statistics
        Read error                           : 0
        Skipped (treated as error)           : 0
        Edge jitter error (maybe fixed)      : 0
        Atom jitter error (maybe fixed)      : 0
        Drift error (maybe fixed)            : 0
        Dropped bytes error (maybe fixed)    : 0
        Duplicated bytes error (maybe fixed) : 0
        Inconsistency in error sectors       : 0
Track 04
    Filename : /Users/Shared/FLACs/Silent Poets - Words and Silence (1994) [FLAC]/04 Break The Circle.flac
    Pre-gap length : 00:02:10
    Track gain             : -3.69 dB
    Peak                   : 1.000000
    CRC32 hash (test run)  : 4060490D
    CRC32 hash             : 4060490D
    CRC32 hash (skip zero) : 877EB1E1
    AccurateRip signature  : 0EB75DCA
        ->Accurately ripped! (confidence 3)
          (matched with the different offset correction value;
           calculated using an additional offset of -861;
           the signature after correction is: D32F8D0C)
    Statistics
        Read error                           : 0
        Skipped (treated as error)           : 0
        Edge jitter error (maybe fixed)      : 0
        Atom jitter error (maybe fixed)      : 0
        Drift error (maybe fixed)            : 0
        Dropped bytes error (maybe fixed)    : 0
        Duplicated bytes error (maybe fixed) : 0
        Inconsistency in error sectors       : 0
Track 05
    Filename : /Users/Shared/FLACs/Silent Poets - Words and Silence (1994) [FLAC]/05 Shalom.flac
    Pre-gap length : 00:01:52
    Track gain             : -7.02 dB
    Peak                   : 0.985382
    CRC32 hash (test run)  : 3B27C981
    CRC32 hash             : 3B27C981
    CRC32 hash (skip zero) : B6B8EAE4
    AccurateRip signature  : F12B17C6
        ->Accurately ripped! (confidence 3)
          (matched with the different offset correction value;
           calculated using an additional offset of -861;
           the signature after correction is: D38B319C)
    Statistics
        Read error                           : 0
        Skipped (treated as error)           : 0
        Edge jitter error (maybe fixed)      : 0
        Atom jitter error (maybe fixed)      : 0
        Drift error (maybe fixed)            : 0
        Dropped bytes error (maybe fixed)    : 0
        Duplicated bytes error (maybe fixed) : 0
        Inconsistency in error sectors       : 0
Track 06
    Filename : /Users/Shared/FLACs/Silent Poets - Words and Silence (1994) [FLAC]/06 Farewell.flac
    Pre-gap length : 00:01:70
    Track gain             : -2.65 dB
    Peak                   : 1.000000
    CRC32 hash (test run)  : F4A361F4
    CRC32 hash             : F4A361F4
    CRC32 hash (skip zero) : 846F40B1
    AccurateRip signature  : E5D96CE0
        ->Accurately ripped! (confidence 3)
          (matched with the different offset correction value;
           calculated using an additional offset of -861;
           the signature after correction is: 72D86B2F)
    Statistics
        Read error                           : 0
        Skipped (treated as error)           : 0
        Edge jitter error (maybe fixed)      : 0
        Atom jitter error (maybe fixed)      : 0
        Drift error (maybe fixed)            : 0
        Dropped bytes error (maybe fixed)    : 0
        Duplicated bytes error (maybe fixed) : 0
        Inconsistency in error sectors       : 0
Track 07
    Filename : /Users/Shared/FLACs/Silent Poets - Words and Silence (1994) [FLAC]/07 Le possédé.flac
    Pre-gap length : 00:01:27
    Track gain             : -4.22 dB
    Peak                   : 1.000000
    CRC32 hash (test run)  : AA8874FA
    CRC32 hash             : AA8874FA
    CRC32 hash (skip zero) : B0C93338
    AccurateRip signature  : 6326C3A4
        ->Accurately ripped! (confidence 3)
          (matched with the different offset correction value;
           calculated using an additional offset of -861;
           the signature after correction is: 1C543EAF)
    Statistics
        Read error                           : 0
        Skipped (treated as error)           : 0
        Edge jitter error (maybe fixed)      : 0
        Atom jitter error (maybe fixed)      : 0
        Drift error (maybe fixed)            : 0
        Dropped bytes error (maybe fixed)    : 0
        Duplicated bytes error (maybe fixed) : 0
        Inconsistency in error sectors       : 0
Track 08
    Filename : /Users/Shared/FLACs/Silent Poets - Words and Silence (1994) [FLAC]/08 A Little Way Of Difference.flac
    Pre-gap length : 00:03:27
    Track gain             : -3.89 dB
    Peak                   : 1.000000
    CRC32 hash (test run)  : 92B63E94
    CRC32 hash             : 92B63E94
    CRC32 hash (skip zero) : F7836A6C
    AccurateRip signature  : F9941EDD
        ->Accurately ripped! (confidence 3)
          (matched with the different offset correction value;
           calculated using an additional offset of -861;
           the signature after correction is: 3FC6FE69)
    Statistics
        Read error                           : 0
        Skipped (treated as error)           : 0
        Edge jitter error (maybe fixed)      : 0
        Atom jitter error (maybe fixed)      : 0
        Drift error (maybe fixed)            : 0
        Dropped bytes error (maybe fixed)    : 0
        Duplicated bytes error (maybe fixed) : 0
        Inconsistency in error sectors       : 0
Track 09
    Filename : /Users/Shared/FLACs/Silent Poets - Words and Silence (1994) [FLAC]/09 Inquizative, Derivative.flac
    Pre-gap length : 00:01:27
    Track gain             : -4.69 dB
    Peak                   : 0.988434
    CRC32 hash (test run)  : 99EAD79D
    CRC32 hash             : 99EAD79D
    CRC32 hash (skip zero) : DA1A5F4A
    AccurateRip signature  : 80CC6457
        ->Accurately ripped! (confidence 3)
          (matched with the different offset correction value;
           calculated using an additional offset of -861;
           the signature after correction is: E9100E58)
    Statistics
        Read error                           : 0
        Skipped (treated as error)           : 0
        Edge jitter error (maybe fixed)      : 0
        Atom jitter error (maybe fixed)      : 0
        Drift error (maybe fixed)            : 0
        Dropped bytes error (maybe fixed)    : 0
        Duplicated bytes error (maybe fixed) : 0
        Inconsistency in error sectors       : 0
Track 10
    Filename : /Users/Shared/FLACs/Silent Poets - Words and Silence (1994) [FLAC]/10 Quiet Bird.flac
    Pre-gap length : 00:03:32
    Track gain             : -4.29 dB
    Peak                   : 1.000000
    CRC32 hash (test run)  : 9C34EE97
    CRC32 hash             : 9C34EE97
    CRC32 hash (skip zero) : 948FF826
    AccurateRip signature  : 02F60842
        ->Accurately ripped! (confidence 3)
          (matched with the different offset correction value;
           calculated using an additional offset of -861;
           the signature after correction is: 06FA064A)
    Statistics
        Read error                           : 0
        Skipped (treated as error)           : 0
        Edge jitter error (maybe fixed)      : 0
        Atom jitter error (maybe fixed)      : 0
        Drift error (maybe fixed)            : 0
        Dropped bytes error (maybe fixed)    : 0
        Duplicated bytes error (maybe fixed) : 0
        Inconsistency in error sectors       : 0
No errors occurred
End of status report

.CUE


TITLE "Words and Silence"
PERFORMER "Silent Poets"
CATALOG 4988061883106
REM DATE "1994"
REM DISCNUMBER 1
REM TOTALDISCS 1
REM DISCID 7B0C180A
FILE "01 Intro.wav" WAVE
  TRACK 01 AUDIO
    TITLE "Intro"
    INDEX 01 00:00:00
FILE "02 La Vie.wav" WAVE
  TRACK 02 AUDIO
    TITLE "La Vie"
    ISRC JPTF09404701
    INDEX 01 00:00:00
  TRACK 03 AUDIO
    TITLE "The Children Of The Future"
    ISRC JPTF09404802
    INDEX 00 05:33:55
FILE "03 The Children Of The Future.wav" WAVE
    INDEX 01 00:00:00
  TRACK 04 AUDIO
    TITLE "Break The Circle"
    ISRC JPTF09404703
    INDEX 00 04:25:23
FILE "04 Break The Circle.wav" WAVE
    INDEX 01 00:00:00
  TRACK 05 AUDIO
    TITLE "Shalom"
    ISRC JPTF09404803
    INDEX 00 06:32:18
FILE "05 Shalom.wav" WAVE
    INDEX 01 00:00:00
  TRACK 06 AUDIO
    TITLE "Farewell"
    ISRC JPTF09404804
    INDEX 00 06:30:50
FILE "06 Farewell.wav" WAVE
    INDEX 01 00:00:00
  TRACK 07 AUDIO
    TITLE "Le possédé"
    ISRC JPTF09404805
    INDEX 00 04:37:10
FILE "07 Le possédé.wav" WAVE
    INDEX 01 00:00:00
  TRACK 08 AUDIO
    TITLE "A Little Way Of Difference"
    ISRC JPTF09404806
    INDEX 00 05:33:11
FILE "08 A Little Way Of Difference.wav" WAVE
    INDEX 01 00:00:00
  TRACK 09 AUDIO
    TITLE "Inquizative, Derivative"
    ISRC JPTF09404807
    INDEX 00 05:36:35
FILE "09 Inquizative, Derivative.wav" WAVE
    INDEX 01 00:00:00
  TRACK 10 AUDIO
    TITLE "Quiet Bird"
    ISRC JPTF09404808
    INDEX 00 04:59:36
FILE "10 Quiet Bird.wav" WAVE
    INDEX 01 00:00:00

LOG auCDtect


-----------------------
DON'T MODIFY THIS FILE
-----------------------
PERFORMER: auCDtect Task Manager, ver. 1.5.1RC4 build 1.5.1.5
Copyright (c) 2008-2010 y-soft. All rights reserved
http://y-soft.org
ANALYZER: auCDtect: CD records authenticity detector, version 0.8.2
Copyright (c) 2004 Oleg Berngardt. All rights reserved.
Copyright (c) 2004 Alexander Djourik. All rights reserved.
FILE: 10 Quiet Bird.flac
  Size: 37477381 Hash: 2B35F2F1EF2B9ABA38C5D1ABD5944D73 Accuracy: -m0
  Conclusion: CDDA 100%
  Signature: CB235EF054C214442AC7D43E4E4D8B0FD8C45E72
FILE: 09 Inquizative, Derivative.flac
  Size: 32722811 Hash: 11F4714F17FC80B8A438773F65E0E8AE Accuracy: -m0
  Conclusion: CDDA 100%
  Signature: 6AF7315618FAF61A7D51BDF4B02D1AAB8949C816
FILE: 08 A Little Way Of Difference.flac
  Size: 29339538 Hash: 9CF50140BEC4191E29EA4591F0FDD68E Accuracy: -m0
  Conclusion: CDDA 100%
  Signature: A9F794FCFFCA4551CFD7F2AE3618F67C2BA21F48
FILE: 07 Le possédé.flac
  Size: 34249374 Hash: DE80D52BBC450287EE998E896F3E3134 Accuracy: -m0
  Conclusion: CDDA 100%
  Signature: 04F656A612B111E192F26B278A9655D63C3D39A0
FILE: 06 Farewell.flac
  Size: 31537185 Hash: 4ED6BE5E56AE2D06D8238AC203C8F6F8 Accuracy: -m0
  Conclusion: CDDA 100%
  Signature: 3B866971A2A6C8E47DAF701A07A347C20006832A
FILE: 05 Shalom.flac
  Size: 42740130 Hash: 52347B4E99955224EDB6F9CB08852FFD Accuracy: -m0
  Conclusion: CDDA 100%
  Signature: BA66163353FCA38770E52FFA98422530AA63DCC3
FILE: 04 Break The Circle.flac
  Size: 43623547 Hash: ACD9C7ED29B7BABB3ED9E78A5FF89E2D Accuracy: -m0
  Conclusion: CDDA 100%
  Signature: 3ADACFF548A738F80431D04A51EC9DBA076AD6B8
FILE: 03 The Children Of The Future.flac
  Size: 24364337 Hash: C591243BC967D137199672A6E2F4717F Accuracy: -m0
  Conclusion: CDDA 100%
  Signature: 92DCE1FE9060370E0107F17F7ED50DB6DFF24DC4
FILE: 02 La Vie.flac
  Size: 31012045 Hash: 7BD68F55063018EA9547E3F55A444E4A Accuracy: -m0
  Conclusion: CDDA 100%
  Signature: A4071207E2E507DD6077B7F7AD2BF19179DCBB13
FILE: 01 Intro.flac
  Size: 3688569 Hash: 950C327336A0AE2B7179F5B74F1E9E7D Accuracy: -m0
  Conclusion: CDDA 99%
  Signature: EDC9374BBD99FB82B70285BF87301C937F55877C

О диске/Исполнителе..

Silent Poets - японский электронный дуэт (теперь сольный проект). На этот момент, они выпустили шесть оригинальных альбомов и более чем семь Remix альбомов / EP.
Музыкальные композиции Silent Poets были отмечены многочисленными модными музыкальными (и не только) журналами и получили международное признание. Также их стали крутить во всем мире: в США, Великобритании, Франции, Германии и Италии. Их треки включаются в список известных компиляций "Кафе Дель-Мар".
Они делают музыку в лучших традициях Acid Jazz / Downtempo и их творчество перекликается с произведениями таких артистов, как их соотечественник DJ Krush, United Future Organization, DJ Cam и т.д.
Среди характерных особенностей глубокие партии пианино, изобилующий оттенками оркестровый саунд и волнообразный сочный бит.
Silent Poets сотрудничают с разными известными (и не очень) мировыми исполнителями и продюсерами поп / рэп / электронной музыки. Такими как: ACO, Port Of Notes, Coldcut, Frederic Galliano, Attica Blues, Yasushi Ide, DJ Vadim, Kid Loco, Towa Tei, Spiritual Vibes, Shakkazombie, Ken Hirai, Ursula Rucker etc.
Группа была создана в 1991 году Michiharu Shimoda и Takahiro Haruno. Первый альбом "Potential Meeting" увидел свет в 1992, записан он был на лейбле Toy's "Factory". После выхода пятого альбома "To Come..." Takahiro Haruno покидает группу и она становится сольным проектом Shimoda. В это время Симода пишет музыку для показов мод, выпускает внушительное количество ремиксов.
Новый альбом "Sun" был выпущен после 6 летнего перерыва, связанного с уходом Haruno, в конце 2005 года.
Здесь Вашему вниманию представлен их второй, по счёту диск "Words And Silence" ("Слова и Безмолвие"), в высоком качестве. Будем наедятся, он произведёт на Вас приятное впечатление.

8ad_R060d

Создавать темы 08.Апр.2015 09:59

[Цитировать]

Гуд

nouveaux

Создавать темы 07.Апр.2015 23:34

[Цитировать]

8ad_R060d, ну мы ж не в Америках живем... Найди перевод или удали инфо!

8ad_R060d

Создавать темы 06.Апр.2015 22:18

[Цитировать]

VA - Football & Funk: Super Heavy Afro Funk- Жанр: Ethno Jazz, Funk, Breakbeat, Lounge
Год выпуска: 2010
Производитель: UK, Skyline Recordings ‎– SLCD1002
Аудиокодек: MP3
Тип рипа: Tracks
Битрейт аудио: 320 kbps CBR
Продолжительность: 00:56:32- Треклист:
01. Flying Fish - Blowpipe 2010
02. Delicious Allstars - African Streets
03. Cobra, The - Afrika
04. Delicious Allstars - Lily Mama
05. Delicious Allstars - Limbesa
06. Delicious Allstars - Afrolatino
07. Cobra, The - The Cobra In Africa
08. Delicious Allstars - Comfort Dodo
09. Funkshone - Stop The Bus
10. Funkshone - Soul Survivor Pt. 2
11. Funkshone - Purification Pt. 2
12. Flying Fish - Sing It Loud
13. Nick "Dollar" Hill - Round The World
14. Herbaliser, The - Bongo Boom (Delicious Mix)
15. Flying Fish - Mr. Matatwe (Big Mix)
16. Keith Mansfield - Grandstand Theme (Flying Fish Remix)
17. Flying Fish - Mr. Matatwe (Original Mix)

bot

Создавать темы 01.Апр.2015 20:13

[Цитировать]

Топик был перенесен из форума Оформление релизов (музыка) в форум Джаз, блюз
nouveaux

BuulleeT

Создавать темы 31.Мар.2015 22:30

[Цитировать]

-Scott Bradlee & Postmodern Jukebox
Discography
-

Жанр: Vocal Jazz, Swing, Jazz-Pop
Страна: USA (New York)
Год издания: 2012-2014
Аудиокодек: MP3
Тип рипа: tracks
Битрейт аудио: 320 kbps
-

Scott Bradlee & Postmodern Jukebox - Mashups By Candlelight [2012] (54:55)

Треклист:
01. Hey Ya Delilah
02. The Sound of No Surprises
03. Rich Girl That I Used to Know
04. We Found Love in a Creepy Place
05. When I Ruled the Mad World
06. My Favorite Thriller
07. Somewhere is My Mind
08. You Can't Hurry Love, Valerie
09. Like Living On a Prayer
10. Tonight We Are Young
11. Bus Stop in the Name of Love
12. Sing Trololo
13. Olympic Chariots of Fire Across the Sea
14. Call Me Al, Maybe

Scott Bradlee & Postmodern Jukebox - Postmodern Jukebox, Season 2 [2013] (18:45)

Треклист:
01.Just Dance
02. Royals (feat. Puddles Pity Party)
03. Wake Me Up
04. Young and Beautiful
05. Story of My Life (feat. Miche Braden)

Scott Bradlee & Postmodern Jukebox - Mashups By Candlelight - Vol. 2 [2013] (1:02:50)

Треклист:
01. Circle Game of Thrones
02. Break - Unbreak Your Heart
03. Clint Eastwood's 007 Cantina
04. Team America in Paris
05. Big Poppa Smurf
06. Crazy^3
07. Avril 14th is Complicated
08. Instant Karma Police
09. Reading Rainbow In the Dark
10. Careless Shouting In Your Sleep
11. No One For No One
12. Let's Stay Together As Long As We've Got Each Other
13. Moon River At Tiffany's
14. Stepping Out Night And Day
15. Game of Thrones (Piano Improvisation)

Scott Bradlee & Postmodern Jukebox - A Very Postmodern Christmas [2014] (39:08)

Треклист:
01. Hark! The Herald Angels We Have Heard on High (feat. Robyn Adele Anderson & Dave Koz)
02. We Three Kings - O Come All Ye Faithful (feat. Von Smith)
03. Baby, It's Cold Outside (feat. Ashley Stroud & Alex MacDonald)
04. The Christmas Song (feat. Cristina Gatti)
05. Blue Christmas (feat. Kate Davis)
06. My Favorite Things (feat. Robyn Adele Anderson)
07. Have Yourself a Merry Little Christmas (feat. Von Smith)
08. O Holy Night (feat. Miche Braden)
09. Do You Hear What I Hear? (feat. Ashley Stroud)
10. The First Noel (feat. Robyn Adele Anderson)
11. Joy to the World (feat. Von Smith)
12. God Rest Ye Merry Gentlemen (feat. Robyn Adele Anderson & Drue Davis)

Scott Bradlee & Postmodern Jukebox - Clubbin' with Grandpa [2014] (49:51)

Треклист:
01. Burn
02. Careless Whisper (feat. Dave Koz)
03. Drunk in Love
04. Birthday
05. Fancy
06. Chandelier (feat. Puddles Pity Party)
07. Talk Dirty
08. Pompeii (feat. Tony DeSare)
09. Sweater Weather
10. Dark Horse
11. Like a Prayer
12. Team (feat. Puddles Pity Party)
13. All of Me (feat. Kish Victoria)
14. We Found Love

Scott Bradlee & Postmodern Jukebox - Historical Misappropriation [2014] (42:29)

Треклист:
01. Rude
02. Womanizer
03. Wiggle
04. Maps
05. Stay With Me
06. Girl Just Wanna Have Fun
07. Really Don't Care
08. No Diggity
09. Creep
10. Summer
11. All About The Bass
12. Waterfalls
13. Livin' On a Prayer
14. Problem
15. Break Free

Scott Bradlee & Postmodern Jukebox - Twist Is The New Twerk [2014] (1:01:03)

Треклист:
01. We Can't Stop
02. Thrift Shop
03. Die Young
04. Timber
05. Royals
06. Blurred Lines
07. Gentleman
08. Story of My Life
09. Call Me Maybe
10. Get Lucky
11. Come & Get It
12. Don't You Worry Child
13. Just Dance
14. Wake Me Up
15. Sweet Child O' Mine
16. Young and Beautiful
17. Beauty and a Beat

bot

Создавать темы 06.Фев.2015 12:23

[Цитировать]

Топик был перенесен из форума Оформление релизов (музыка) в форум Джаз, блюз
nouveaux

8ad_R060d

Создавать темы 06.Фев.2015 06:53

[Цитировать]

Добавил инфо..

8ad_R060d

Создавать темы 05.Фев.2015 14:36

[Цитировать]

Down To The Bone - Dig It- Жанр: Acid Jazz, Funk
Год выпуска: 2014
Источник: CD
Производитель: USA, Trippin N' Rhythm Records, TNR 69
Аудиокодек: FLAC
Тип рипа: Image+.CUE
Битрейт: lossless
Продолжительность: 01:01:47
Треклист:
01. Dropping Knowledge
02. The Bounce
03. Dig It
04. Happiness Is a Healer
05. Meteorite
06. Put a Different Spin on It
07. The Sweetness
08. Getting It Together
09. We're on the Move
10. Give Me Love

Отчет EAC

Exact Audio Copy V1.0 beta 3 from 29. August 2011
Отчёт EAC об извлечении, выполненном 29. апреля 2014, 19:47
Down To The Bone / Dig It
Дисковод: PLEXTOR DVDR PX-880SA Adapter: 1 ID: 0
Режим чтения : Достоверность
Использование точного потока : Да
Отключение кэша аудио : Да
Использование указателей C2 : Нет
Коррекция смещения при чтении : 6
Способность читать области Lead-in и Lead-out : Нет
Заполнение пропущенных сэмплов тишиной : Да
Удаление блоков с тишиной в начале и конце : Нет
При вычислениях CRC использовались нулевые сэмплы : Да
Интерфейс : Установленный внешний ASPI-интерфейс
Выходной формат : Пользовательский кодировщик
Выбранный битрейт : 1024 kBit/s
Качество : Высокий
Добавление ID3-тега : Нет
Утилита сжатия : C:\Program Files\Exact Audio Copy\FLAC\FLAC.EXE
Дополнительные параметры : -10 -V -T "ARTIST=%artist%" -T "ALBUM=%albumtitle%" -T "DATE=%year%" -T "GENRE=%genre%" -T "COMMENT=ripped by izia1956" %source%
TOC извлечённого CD
Трек | Старт | Длительность | Начальный сектор | Конечный сектор
---------------------------------------------------------------------
1 | 0:00.00 | 6:29.47 | 0 | 29221
2 | 6:29.47 | 5:37.31 | 29222 | 54527
3 | 12:07.03 | 7:47.15 | 54528 | 89567
4 | 19:54.18 | 6:23.09 | 89568 | 118301
5 | 26:17.27 | 5:41.03 | 118302 | 143879
6 | 31:58.30 | 6:34.66 | 143880 | 173495
7 | 38:33.21 | 5:34.29 | 173496 | 198574
8 | 44:07.50 | 5:53.74 | 198575 | 225123
9 | 50:01.49 | 5:34.11 | 225124 | 250184
10 | 55:35.60 | 6:11.62 | 250185 | 278071
Характеристики диапазона извлечения и сообщения об ошибках
Выбранный диапазон
Имя файла D:\BitComet\Down To The Bone - Dig It (2014)(flac)\Down To The Bone - Dig It.wav
Пиковый уровень 98.1 %
Скорость извлечения 2.9 X
Качество диапазона 100.0 %
CRC теста BE484E0D
CRC копии BE484E0D
Копирование... OK
Ошибок не произошло
AccurateRip: сводка
Трек 1 отсутствует в базе данных
Трек 2 отсутствует в базе данных
Трек 3 отсутствует в базе данных
Трек 4 отсутствует в базе данных
Трек 5 отсутствует в базе данных
Трек 6 отсутствует в базе данных
Трек 7 отсутствует в базе данных
Трек 8 отсутствует в базе данных
Трек 9 отсутствует в базе данных
Трек 10 отсутствует в базе данных
Ни одного трека нет в базе AccurateRip
Конец отчёта
==== Контрольная сумма отчёта 96120F10EA7DD2FE9F7042B89138B2E1C70CE1C0E985183269FA27A87BE99BCB ====

.CUE

REM GENRE "Acid Jazz/Funk"
REM DATE 2014
REM DISCID 8A0E7B0A
REM COMMENT "ExactAudioCopy v1.0b3"
PERFORMER "Down To The Bone"
TITLE "Dig It"
FILE "Down To The Bone - Dig It.flac" WAVE
TRACK 01 AUDIO
TITLE "Dropping Knowledge"
PERFORMER "Down To The Bone"
INDEX 01 00:00:00
TRACK 02 AUDIO
TITLE "The Bounce"
PERFORMER "Down To The Bone"
INDEX 01 06:29:47
TRACK 03 AUDIO
TITLE "Dig It"
PERFORMER "Down To The Bone"
INDEX 01 12:07:03
TRACK 04 AUDIO
TITLE "Happiness Is A Healer"
PERFORMER "Down To The Bone"
INDEX 01 19:54:18
TRACK 05 AUDIO
TITLE "Meteorite"
PERFORMER "Down To The Bone"
INDEX 01 26:17:27
TRACK 06 AUDIO
TITLE "Put A Different Spin On It"
PERFORMER "Down To The Bone"
INDEX 00 31:58:07
INDEX 01 31:58:30
TRACK 07 AUDIO
TITLE "The Sweetness"
PERFORMER "Down To The Bone"
INDEX 01 38:33:21
TRACK 08 AUDIO
TITLE "Getting It Together"
PERFORMER "Down To The Bone"
INDEX 01 44:07:50
TRACK 09 AUDIO
TITLE "We're On The Move"
PERFORMER "Down To The Bone"
INDEX 00 50:01:15
INDEX 01 50:01:49
TRACK 10 AUDIO
TITLE "Give Me Love"
PERFORMER "Down To The Bone"
INDEX 01 55:35:60

О группе..

Провозглашенные королями британского джазового грува Down to the Bone от альбома к альбому совершенствуют свое грувовое звучание – оно становится более сложным, более фанковым и более сочным. Их музыка охватывает все, к чему имеет отношение фанк, соул и джаз. Как заявляет основатель и продюсер группы Стюарт Уэйд (Stuart Wade) «все дело в груве… именно он побуждает людей танцевать, их пальцы постукивать, а головы кивать». Уэйд и Крис Морганс (Chris Morgans) (последний в проекте уже не участвует) сформировали группу в 1996 году. Предыдущие музыкальные и деловые проекты Уэйда (группа Think Twice и лейбл Internal Bass Records) дали ему столь необходимый опыт, чтобы достичь те музыкальные цели, которые он перед собой поставил. В 2001 году Уэйд решил порвать отношения с лейблом Internal Bass Records. Имея в своем активе три альбома Down to the Bone, альбом New Jazz Hustlers (New Jazz City, 2000 год) и три сборника джаз-фанковой музыки, получивших широкое признание у музыкальных критиков и добравшихся до высших строк чарта US contemporary Jazz Billboard, Уэйд решил не оглядываться назад. Будучи завзятым меломаном Уэйн является поклонником таких музыкантов как Рэмси Льюис (Ramsey Lewis), Рой Айерс (Roy Ayers) и Лонни Листон Смит (Lonnie Liston Smith). Ретро-стиль, который воздает должное этим классикам, и воплощает звук Down to the Bone, создан уникальным способом. Уэйда можно весьма условно относить к музыкантам, по крайне мере традиционным, он вообще не играет ни на каком инструменте. Вместо этого Уэйд напевает мелодии на диктофон, ну а затем остальные участники группы (состав весьма непостоянен) помогают ему развить идеи и мелодии: вместе, они кладут аккорды и создают ритмы. После этого Уэйд использует образцы звуков различных инструментов и сэмплы из своей библиотеки, и, наконец, с помощью инженера, редактирует и микширует имеющийся материал. Последним шагом в цепочке становится приглашение вокалистов и хороших музыкантов. Вот таким нестандартным способом получается отличная музыка.
Официальный сайт www. downtothebone. com
Источник:
 

Текущее время: 20-Авг 03:37

Часовой пояс: UTC + 3