Результатов поиска: 184

Автор Сообщение

Solitude

Создавать темы 22.Мар.2019 21:08

[Цитировать]

Пересмотрел хр знает в какой раз Черную акулу, потом голубой гром(в обзоре Акулы про схожесть писали).
Ну, после Акулы я конечно зря гром глянуть решил, ибо та ещё дрянь. Акула и сейчас неплохо смотрелась, а гром просто парад абсурда. Хотя в гром двух качественных актеров завезли.

Solitude

Создавать темы 05.Дек.2018 20:17

[Цитировать]

онлайн смотрю ничего не закачивая например.
+++

Sergey3695

Создавать темы 05.Дек.2018 19:16

[Цитировать]

при просмотре на Рубин 51ТЦ-402ДИ отличий от 40 гиговой версии не выявленно точка

Mesivo

Создавать темы 05.Дек.2018 17:18

[Цитировать]

287744Mesivo,
не китаец)) всего лишь нищеброд, с очень ограниченным объёмом на дисках
да и вообще для HEVC это норм сжатие, вот только что собрал рип на Бегущий по лезвию 2049 в 1080р, получился ровно 3,03 гига с двумя аудиодорожками, от 40 гиговой лицензии визуально отличий практически нет
оставайтесь в иллюзиях

valeriy_chernov

Создавать темы 05.Дек.2018 17:07

[Цитировать]

Mesivo,
не китаец)) всего лишь нищеброд, с очень ограниченным объёмом на дисках
да и вообще для HEVC это норм сжатие, вот только что собрал рип на Бегущий по лезвию 2049 в 1080р, получился ровно 3,03 гига с двумя аудиодорожками, от 40 гиговой лицензии визуально отличий практически нет

Mesivo

Создавать темы 05.Дек.2018 16:48

[Цитировать]

етить-колотить, какой кошмар bububu ты случайно не китаец? они так же жмут

valeriy_chernov

Создавать темы 05.Дек.2018 16:32

[Цитировать]

Mesivo,
Не могу с вами согласиться - качество очень хорошее, не идеальное, но очень хорошее, на 40 дюймах смотрится отлично, на компе тем более!
На двухметровом телеке с 4к наверное будет хреновое, но если бы я когда-нибудь мог позволить себе такой телевизор, как и большинство вряд ли бы я сидел на торрентах :)
Прилагаю MediaInfo на 3 серию 2 сезона, с самым низким объемом, все остальные по основным параметрам очень похожи, ну и скриншоты из каждого сезона, в т.ч. из 3 серии второго сезона(надеюсь прикрепятся)
Общее
Уникальный идентификатор : 279566236426189017889798689856978857500 (0xD2527FA561DF97211E2C2B7E7AD2AE1C)
Полное имя : D:\0 Movies\Game Of Thrones\Game Of Thrones 13 What Is Dead May Never Die.mkv
Формат : Matroska
Версия формата : Version 4 / Version 2
Размер файла : 728 Мбайт
Продолжительность : 52 м. 45 с.
Общий поток : 1930 Кбит/сек
Название фильма : Game Of Thrones 13 What Is Dead May Never Die
Дата кодирования : UTC 2018-11-19 04:56:16
Программа кодирования : mkvmerge v22.0.0 ('At The End Of The World') 64-bit
Библиотека кодирования : libebml v1.3.5 + libmatroska v1.4.8
Видео
Идентификатор : 1
Формат : HEVC
Формат/Информация : High Efficiency Video Coding
Профиль формата : Main 10@L4@Main
Идентификатор кодека : V_MPEGH/ISO/HEVC
Продолжительность : 52 м. 44 с.
Битрейт : 1352 Кбит/сек
Ширина : 1920 пикселей
Высота : 1080 пикселей
Соотношение сторон : 16:9
Режим частоты кадров : Постоянный
Частота кадров : 23,976 (24000/1001) кадра/сек
Цветовое пространство : YUV
Субдискретизация насыщенности : 4:2:0
Битовая глубина : 10 бит
Бит/(Пиксели*Кадры) : 0.027
Размер потока : 510 Мбайт (70%)
Заголовок : Game Of Thrones 13 What Is Dead May Never Die
Язык : English
Default : Нет
Forced : Нет
Аудио #1
Идентификатор : 2
Формат : AC-3
Формат/Информация : Audio Coding 3
Идентификатор кодека : A_AC3
Продолжительность : 52 м. 45 с.
Вид битрейта : Постоянный
Битрейт : 384 Кбит/сек
Каналы : 6 каналов
Расположение каналов : Front: L C R, Side: L R, LFE
Частота : 48,0 КГц
Частота кадров : 31,250 кадров/сек (1536 SPF)
Битовая глубина : 16 бит
Метод сжатия : С потерями
Размер потока : 145 Мбайт (20%)
Заголовок : English
Язык : English
ServiceKind/String : Complete Main
Default : Нет
Forced : Нет
Аудио #2
Идентификатор : 3
Формат : AC-3
Формат/Информация : Audio Coding 3
Идентификатор кодека : A_AC3
Продолжительность : 52 м. 45 с.
Вид битрейта : Постоянный
Битрейт : 192 Кбит/сек
Каналы : 2 канала
Расположение каналов : Front: L R
Частота : 48,0 КГц
Частота кадров : 31,250 кадров/сек (1536 SPF)
Битовая глубина : 16 бит
Метод сжатия : С потерями
Размер потока : 72,4 Мбайт (10%)
Заголовок : Russian
Язык : Russian
ServiceKind/String : Complete Main
Default : Нет
Forced : Нет
Текст #1
Идентификатор : 4
Формат : UTF-8
Идентификатор кодека : S_TEXT/UTF8
Идентификатор кодека/Информация : UTF-8 Plain Text
Продолжительность : 49 м. 17 с.
Битрейт : 57 бит/сек
ElementCount : 693
Размер потока : 20,8 Кбайт (0%)
Заголовок : English Full
Язык : English
Default : Нет
Forced : Нет
Текст #2
Идентификатор : 5
Формат : UTF-8
Идентификатор кодека : S_TEXT/UTF8
Идентификатор кодека/Информация : UTF-8 Plain Text
Продолжительность : 49 м. 17 с.
Битрейт : 99 бит/сек
ElementCount : 686
Размер потока : 36,0 Кбайт (0%)
Заголовок : Russian Full
Язык : Russian
Default : Нет
Forced : Нет
Текст #3
Идентификатор : 6
Формат : UTF-8
Идентификатор кодека : S_TEXT/UTF8
Идентификатор кодека/Информация : UTF-8 Plain Text
Продолжительность : 10 с. 760 мс.
Битрейт : 319 бит/сек
ElementCount : 5
Размер потока : 430 байт (0%)
Заголовок : Russian Forced
Язык : Russian
Default : Нет
Forced : Да






IDDQD

Создавать темы 05.Дек.2018 16:13

[Цитировать]

287677все 67 серий весят 61,7 Гб
Представляю какое там потрясное качество.

Mesivo

Создавать темы 05.Дек.2018 14:44

[Цитировать]

287677Посоны! Я тут недавно решил на внешний винт начать собирать коллекцию фильмов.. и выбор пал на HEVC кодек.. так вот два месяца делал репак Игры Престолов - именно репак так как брал уже готовые Bluray рипы с зарубежных трекеров и добавлял в mkv контейнер рус. дорожки и субтитры.
все 67 серий весят 61,7 Гб
1920*1080 HEVC 10bit, две аудиодороги Original Ac3 5.1 + РенТВ/Кравец 2.0 + субтитры полные на обоих языках и форсированные к каждой серии
Так вот, стоит ли мне создавать раздачу здесь на avg? Так как таких раздач я не находил на русскоязычных трекерах.
Нужно это кому-нибудь или нет? Сможет кто подхватить? Потому как я сам раздавать не могу, максимум пару недель
P.S. Все серии лично пересмотрел, в каждой серии редактировал субтитры, убрал все левые записи в субтитрах (типа этот релиз подготовлен такой-то командой), в третьем сезоне добавил недостающий перевод на места, которые не пропустила цензура на РенТВ
P.S.2 Ну и советую посмотреть фильм Ветренная Река от Тейлора Шеридана сценариста Сикарио
если один сезон то дай посмотреть медиаинфо, если все, то взаднее отверстие такое говённое качество

West4it

Создавать темы 05.Дек.2018 14:03

[Цитировать]

valeriy_chernov,
Такое скорее на рутрекере подхватят, ну можно и на ннме попытаться prankster

Zobaken

Создавать темы 05.Дек.2018 14:02

[Цитировать]

valeriy_chernov, я бы скачал. dntknw

Sergey3695

Создавать темы 05.Дек.2018 14:00

[Цитировать]

ну я б например после просмотра, удалил бы 61.7 гб. т.к. на винте такое добро держать тяжеловато. да и в последнее время онлайн смотрю ничего не закачивая например.

valeriy_chernov

Создавать темы 05.Дек.2018 09:58

[Цитировать]

Посоны! Я тут недавно решил на внешний винт начать собирать коллекцию фильмов.. и выбор пал на HEVC кодек.. так вот два месяца делал репак Игры Престолов - именно репак так как брал уже готовые Bluray рипы с зарубежных трекеров и добавлял в mkv контейнер рус. дорожки и субтитры.
все 67 серий весят 61,7 Гб
1920*1080 HEVC 10bit, две аудиодороги Original Ac3 5.1 + РенТВ/Кравец 2.0 + субтитры полные на обоих языках и форсированные к каждой серии
Так вот, стоит ли мне создавать раздачу здесь на avg? Так как таких раздач я не находил на русскоязычных трекерах.
Нужно это кому-нибудь или нет? Сможет кто подхватить? Потому как я сам раздавать не могу, максимум пару недель
P.S. Все серии лично пересмотрел, в каждой серии редактировал субтитры, убрал все левые записи в субтитрах (типа этот релиз подготовлен такой-то командой), в третьем сезоне добавил недостающий перевод на места, которые не пропустила цензура на РенТВ
P.S.2 Ну и советую посмотреть фильм Ветренная Река от Тейлора Шеридана сценариста Сикарио

Solitude

Создавать темы 05.Дек.2018 01:49

[Цитировать]

Акулье торнадо 6, наравне с Кровавой гонкой, лучший наверно трэш за 2018) Впрочем, убрали на какое то место Дольфа Лундгрена авторы, заменив на Гэри Бьюзи и Бо Дерек в самом конце.

Solitude

Создавать темы 09.Ноя.2018 18:36

[Цитировать]

11.22.63 по Стивену Кингу, получилось вполне годно.
 

Текущее время: 20-Июн 00:10

Часовой пояс: UTC + 3