Результатов поиска: 139

Автор Сообщение

Andrew Sanders

Создавать темы 30.Сен.2018 00:37

[Цитировать]

Evgeny_Mozer, и xzen, спасибо за раздачу!

Adil

Создавать темы 29.Сен.2018 18:43

[Цитировать]

Evgeny_Mozer, Спасибо большое! drinks friends

Evgeny_Mozer

Создавать темы 29.Сен.2018 18:01

[Цитировать]

тоже встал на раздачу drinks

Adil

Создавать темы 29.Сен.2018 16:23

[Цитировать]

Andrew Sanders, появились сиды на первоисточнике prankster Надежда есть friends

Andrew Sanders

Создавать темы 29.Сен.2018 15:13

[Цитировать]

Adil, боль.jpg

Adil

Создавать темы 29.Сен.2018 08:03

[Цитировать]

Andrew Sanders, простите, возможности нету.

Andrew Sanders

Создавать темы 29.Сен.2018 02:06

[Цитировать]

Мама-мия! Вот это добро, Adil, есть ли возможность быть на раздаче?

arx D.

Создавать темы 21.Авг.2017 03:08

[Цитировать]

спасибо за релиз!
жаль славная rg Echo пропала search-вот это круто! спасибо) не закрывай публ.доступ, потихоньку выкачаю все!

XAW

Создавать темы 20.Авг.2017 23:31

[Цитировать]


-Жанр: Ambient
Композитор: Kelly Bailey
Год издания: 2007
Формат: FLAC
Тип рипа: tracks+cue
Битрейт: lossless
Продолжительность: 00:51:07-Треклист:-
01. Vortal Combat 3:14
02. Last Legs 2:07
03. Eon Trap 3:14
04. Sector Sweep 2:46
05. Eine Kleiner Elevatormuzik 1:18
06. Hunting Party 3:29
07. Abandoned In Place 2:47
08. Darkness At Noon 0:56
09. Disrupted Original 1:18
10. Guard Down 1:39
11. What Kind Of Hospital Is This? 3:04
12. Infraradiant 4:37
13. Extinction Event Horizon 2:04
14. No One Rides For Free 1:02
15. Shu'ulathoi 2:38
16. Nectarium 1:47
17. Combine Advisory 1:47
18. Decay Mode 3:06
19. Self Destruction 2:00
20. Inhuman Frequency 1:50
21. Dark Interval 1:35
22. Penultimatum 2:49

-Информация:-Soundtrack включенный в Русское издание The Orange Box.
Треки 5, 8~12, 17~19, 22 из Episode One.
Треки 1~4, 6~7, 13~16, 20~21 из Episode Two.
Рип сделан мной, лог:
Exact Audio Copy V1.3 from 2. September 2016
EAC extraction logfile from 20. August 2017, 22:57
Kelly Bailey / Half-Life 2: Episode Two Soundtrack
Used drive : TSSTcorpCDDVDW SH-224BB Adapter: 1 ID: 0
Read mode : Secure
Utilize accurate stream : Yes
Defeat audio cache : Yes
Make use of C2 pointers : No
Read offset correction : 6
Overread into Lead-In and Lead-Out : No
Fill up missing offset samples with silence : Yes
Delete leading and trailing silent blocks : No
Null samples used in CRC calculations : Yes
Used interface : Native Win32 interface for Win NT & 2000
Gap handling : Appended to previous track
Used output format : User Defined Encoder
Selected bitrate : 1024 kBit/s
Quality : High
Add ID3 tag : No
Command line compressor : C:\Program Files (x86)\Exact Audio Copy\FLAC\FLAC.EXE
Additional command line options : -8 -V -T "ARTIST=%artist%" -T "TITLE=%title%" -T "ALBUM=%albumtitle%" -T "DATE=%year%" -T "TRACKNUMBER=%tracknr%" -T "GENRE=%genre%" -T "PERFORMER=%albuminterpret%" -T "COMPOSER=%composer%" %haslyrics%--tag-from-file=LYRICS="%lyricsfile%"%haslyrics% -T "ALBUMARTIST=%albumartist%" -T "DISCNUMBER=%cdnumber%" -T "TOTALDISCS=%totalcds%" -T "TOTALTRACKS=%numtracks%" -T "COMMENT=%comment%" %source% -o %dest%
TOC of the extracted CD
Track | Start | Length | Start sector | End sector
---------------------------------------------------------
1 | 0:00.00 | 3:16.49 | 0 | 14748
2 | 3:16.49 | 2:09.57 | 14749 | 24480
3 | 5:26.31 | 3:15.66 | 24481 | 39171
4 | 8:42.22 | 2:48.31 | 39172 | 51802
5 | 11:30.53 | 1:19.71 | 51803 | 57798
6 | 12:50.49 | 3:31.37 | 57799 | 73660
7 | 16:22.11 | 2:49.17 | 73661 | 86352
8 | 19:11.28 | 0:57.69 | 86353 | 90696
9 | 20:09.22 | 1:19.71 | 90697 | 96692
10 | 21:29.18 | 1:41.29 | 96693 | 104296
11 | 23:10.47 | 3:06.45 | 104297 | 118291
12 | 26:17.17 | 4:39.64 | 118292 | 139280
13 | 30:57.06 | 2:06.25 | 139281 | 148755
14 | 33:03.31 | 1:04.32 | 148756 | 153587
15 | 34:07.63 | 2:39.70 | 153588 | 165582
16 | 36:47.58 | 1:49.03 | 165583 | 173760
17 | 38:36.61 | 1:49.15 | 173761 | 181950
18 | 40:26.01 | 3:08.50 | 181951 | 196100
19 | 43:34.51 | 2:02.08 | 196101 | 205258
20 | 45:36.59 | 1:52.04 | 205259 | 213662
21 | 47:28.63 | 1:37.16 | 213663 | 220953
22 | 49:06.04 | 2:49.34 | 220954 | 233662
Track 1
Filename C:\Kelly Bailey - Half-Life 2 Episode Two Soundtrack (2007) [FLAC] {UL-075721}\01 - Vortal Combat.wav
Pre-gap length 0:00:02.00
Peak level 100.0 %
Extraction speed 4.3 X
Track quality 100.0 %
Test CRC B22D3E13
Copy CRC B22D3E13
Accurately ripped (confidence 6) [B084E2A8] (AR v2)
Copy OK
Track 2
Filename C:\Kelly Bailey - Half-Life 2 Episode Two Soundtrack (2007) [FLAC] {UL-075721}\02 - Last Legs.wav
Peak level 100.0 %
Extraction speed 4.2 X
Track quality 100.0 %
Test CRC 0E7DB8B3
Copy CRC 0E7DB8B3
Accurately ripped (confidence 6) [95C64883] (AR v2)
Copy OK
Track 3
Filename C:\Kelly Bailey - Half-Life 2 Episode Two Soundtrack (2007) [FLAC] {UL-075721}\03 - Eon Trap.wav
Peak level 100.0 %
Extraction speed 4.2 X
Track quality 99.9 %
Test CRC 6891AF80
Copy CRC 6891AF80
Accurately ripped (confidence 6) [736E8ECC] (AR v2)
Copy OK
Track 4
Filename C:\Kelly Bailey - Half-Life 2 Episode Two Soundtrack (2007) [FLAC] {UL-075721}\04 - Sector Sweep.wav
Peak level 99.8 %
Extraction speed 5.0 X
Track quality 100.0 %
Test CRC 29DA3147
Copy CRC 29DA3147
Accurately ripped (confidence 6) [78023B40] (AR v2)
Copy OK
Track 5
Filename C:\Kelly Bailey - Half-Life 2 Episode Two Soundtrack (2007) [FLAC] {UL-075721}\05 - Eine Kleiner Elevatormuzik.wav
Peak level 64.6 %
Extraction speed 4.3 X
Track quality 100.0 %
Test CRC 8879EF88
Copy CRC 8879EF88
Accurately ripped (confidence 6) [7DCD16FA] (AR v2)
Copy OK
Track 6
Filename C:\Kelly Bailey - Half-Life 2 Episode Two Soundtrack (2007) [FLAC] {UL-075721}\06 - Hunting Party.wav
Peak level 99.5 %
Extraction speed 4.5 X
Track quality 99.9 %
Test CRC 3687331B
Copy CRC 3687331B
Accurately ripped (confidence 6) [E574A831] (AR v2)
Copy OK
Track 7
Filename C:\Kelly Bailey - Half-Life 2 Episode Two Soundtrack (2007) [FLAC] {UL-075721}\07 - Abandoned in Place.wav
Peak level 99.9 %
Extraction speed 5.5 X
Track quality 100.0 %
Test CRC E5448D40
Copy CRC E5448D40
Accurately ripped (confidence 6) [D63EA385] (AR v2)
Copy OK
Track 8
Filename C:\Kelly Bailey - Half-Life 2 Episode Two Soundtrack (2007) [FLAC] {UL-075721}\08 - Darkness At Noon.wav
Peak level 99.8 %
Extraction speed 4.2 X
Track quality 100.0 %
Test CRC 768E9E5D
Copy CRC 768E9E5D
Accurately ripped (confidence 6) [A780390A] (AR v2)
Copy OK
Track 9
Filename C:\Kelly Bailey - Half-Life 2 Episode Two Soundtrack (2007) [FLAC] {UL-075721}\09 - Disrupted Original.wav
Peak level 100.0 %
Extraction speed 4.7 X
Track quality 100.0 %
Test CRC 7A5D9681
Copy CRC 7A5D9681
Accurately ripped (confidence 6) [226D1B91] (AR v2)
Copy OK
Track 10
Filename C:\Kelly Bailey - Half-Life 2 Episode Two Soundtrack (2007) [FLAC] {UL-075721}\10 - Guard Down.wav
Peak level 94.0 %
Extraction speed 5.0 X
Track quality 100.0 %
Test CRC C363C0F6
Copy CRC C363C0F6
Accurately ripped (confidence 6) [C4C32784] (AR v2)
Copy OK
Track 11
Filename C:\Kelly Bailey - Half-Life 2 Episode Two Soundtrack (2007) [FLAC] {UL-075721}\11 - What Kind of Hospital Is This.wav
Peak level 100.0 %
Extraction speed 6.0 X
Track quality 100.0 %
Test CRC 9334AC3C
Copy CRC 9334AC3C
Accurately ripped (confidence 6) [7003FAC3] (AR v2)
Copy OK
Track 12
Filename C:\Kelly Bailey - Half-Life 2 Episode Two Soundtrack (2007) [FLAC] {UL-075721}\12 - Infraradiant.wav
Peak level 98.8 %
Extraction speed 6.1 X
Track quality 99.9 %
Test CRC 073AE76B
Copy CRC 073AE76B
Accurately ripped (confidence 6) [724BF6A7] (AR v2)
Copy OK
Track 13
Filename C:\Kelly Bailey - Half-Life 2 Episode Two Soundtrack (2007) [FLAC] {UL-075721}\13 - Extinction Event Horizon.wav
Peak level 98.0 %
Extraction speed 6.1 X
Track quality 100.0 %
Test CRC AF13FE3C
Copy CRC AF13FE3C
Accurately ripped (confidence 6) [640C7B05] (AR v2)
Copy OK
Track 14
Filename C:\Kelly Bailey - Half-Life 2 Episode Two Soundtrack (2007) [FLAC] {UL-075721}\14 - No One Rides for Free.wav
Peak level 91.4 %
Extraction speed 3.6 X
Track quality 99.8 %
Test CRC AFF40A9E
Copy CRC AFF40A9E
Accurately ripped (confidence 6) [4D66C949] (AR v2)
Copy OK
Track 15
Filename C:\Kelly Bailey - Half-Life 2 Episode Two Soundtrack (2007) [FLAC] {UL-075721}\15 - Shu'ulathoi.wav
Peak level 96.1 %
Extraction speed 6.6 X
Track quality 100.0 %
Test CRC 9CFE1509
Copy CRC 9CFE1509
Accurately ripped (confidence 6) [412B73BF] (AR v2)
Copy OK
Track 16
Filename C:\Kelly Bailey - Half-Life 2 Episode Two Soundtrack (2007) [FLAC] {UL-075721}\16 - Nectarium.wav
Peak level 100.0 %
Extraction speed 6.2 X
Track quality 100.0 %
Test CRC F37EC812
Copy CRC F37EC812
Accurately ripped (confidence 6) [3EA88DD1] (AR v2)
Copy OK
Track 17
Filename C:\Kelly Bailey - Half-Life 2 Episode Two Soundtrack (2007) [FLAC] {UL-075721}\17 - Combine Advisory.wav
Peak level 72.7 %
Extraction speed 5.0 X
Track quality 99.9 %
Test CRC BC6C6577
Copy CRC BC6C6577
Accurately ripped (confidence 6) [90374A42] (AR v2)
Copy OK
Track 18
Filename C:\Kelly Bailey - Half-Life 2 Episode Two Soundtrack (2007) [FLAC] {UL-075721}\18 - Decay Mode.wav
Peak level 99.8 %
Extraction speed 7.2 X
Track quality 100.0 %
Test CRC 4E15F873
Copy CRC 4E15F873
Accurately ripped (confidence 6) [B853C1B0] (AR v2)
Copy OK
Track 19
Filename C:\Kelly Bailey - Half-Life 2 Episode Two Soundtrack (2007) [FLAC] {UL-075721}\19 - Self Destruction.wav
Peak level 100.0 %
Extraction speed 6.5 X
Track quality 100.0 %
Test CRC 488AA768
Copy CRC 488AA768
Accurately ripped (confidence 6) [71D1F88A] (AR v2)
Copy OK
Track 20
Filename C:\Kelly Bailey - Half-Life 2 Episode Two Soundtrack (2007) [FLAC] {UL-075721}\20 - Inhuman Frequency.wav
Peak level 99.5 %
Extraction speed 6.7 X
Track quality 100.0 %
Test CRC 081BB033
Copy CRC 081BB033
Accurately ripped (confidence 6) [C6959865] (AR v2)
Copy OK
Track 21
Filename C:\Kelly Bailey - Half-Life 2 Episode Two Soundtrack (2007) [FLAC] {UL-075721}\21 - Dark Interval.wav
Peak level 89.5 %
Extraction speed 6.4 X
Track quality 100.0 %
Test CRC 93D1F20D
Copy CRC 93D1F20D
Accurately ripped (confidence 6) [DB175DA4] (AR v2)
Copy OK
Track 22
Filename C:\Kelly Bailey - Half-Life 2 Episode Two Soundtrack (2007) [FLAC] {UL-075721}\22 - Penultimatum.wav
Peak level 100.0 %
Extraction speed 7.6 X
Track quality 100.0 %
Test CRC 5FF97728
Copy CRC 5FF97728
Accurately ripped (confidence 6) [FA8D4E33] (AR v2)
Copy OK
All tracks accurately ripped
No errors occurred
End of status report
---- CUETools DB Plugin V2.1.6
[CTDB TOCID: J3vLGLk2t8OAB9DF4bQ6omCbZKI-] found
Submit result: already submitted
Track | CTDB Status
1 | (20/20) Accurately ripped
2 | (20/20) Accurately ripped
3 | (20/20) Accurately ripped
4 | (20/20) Accurately ripped
5 | (20/20) Accurately ripped
6 | (20/20) Accurately ripped
7 | (20/20) Accurately ripped
8 | (20/20) Accurately ripped
9 | (19/20) Accurately ripped
10 | (20/20) Accurately ripped
11 | (20/20) Accurately ripped
12 | (20/20) Accurately ripped
13 | (20/20) Accurately ripped
14 | (20/20) Accurately ripped
15 | (20/20) Accurately ripped
16 | (20/20) Accurately ripped
17 | (20/20) Accurately ripped
18 | (20/20) Accurately ripped
19 | (20/20) Accurately ripped
20 | (20/20) Accurately ripped
21 | (20/20) Accurately ripped
22 | (20/20) Accurately ripped
==== Log checksum 9FE66466DB65F7C72925A5ACB21B47FF7DAB52C9EFA1BBCFB1866353FA1A00CC ====

kav2909

Создавать темы 16.Дек.2016 20:38

[Цитировать]

Раздачу можно поглощать, теперь уже есть полное собрание. https://avg.club/viewtopic.php?t=49791

anto71gav9

Создавать темы 02.Ноя.2016 00:18

[Цитировать]

есть запоминающиеся классные треки спасибо!

arx D.

Создавать темы 05.Окт.2016 12:14

[Цитировать]

murlakatamenka, hi

murlakatamenka

Создавать темы 04.Окт.2016 23:35

[Цитировать]

arx D., отдельным релизом не будет, но выложить на файлообменник могу.
https://mega.nz/#F!QA1CnRLD!lqv6pZ92slZoQ0b-WaBMTQ
Vorbis OGG -q6

arx D.

Создавать темы 04.Окт.2016 11:15

[Цитировать]

lossy будет?

murlakatamenka

Создавать темы 03.Окт.2016 22:03

[Цитировать]

Скор к Mirror's Edge Catalyst - мой досрочный победитель в номинации "Лучшая муыка к игре" 2016 good-Творчество тов. kav2009:
 

Текущее время: 20-Авг 04:36

Часовой пояс: UTC + 3