Результатов поиска: 39

Автор Сообщение

Ma3xZ

Создавать темы 27.Фев.2018 08:26

[Цитировать]

Коврик на втором скрине прям как у моей бабули был prankster

Adil

Создавать темы 27.Фев.2018 05:46

[Цитировать]

самый говеный сезон, хуже 23 сезона топ гира. Даже спец серия скучна facepalm

Kastiel

Создавать темы 26.Фев.2018 23:20

[Цитировать]

Гранд Тур | The Grand Tour- Год выпуска: 2017-2018
Страна: США
Жанр: Автопередача
Продолжительность: ~ 01:10:00-Перевод: Профессиональный (многоголосый закадровый) | AlexFilm
Субтитры: Русские (Amazon), английские-Режиссер: Фил Чурчуорд, Кит Линч Робинсон, Гэвин Уайтхед
В ролях: Джереми Кларксон, Ричард Хаммонд, Джеймс Мэй-Описание: Гранд Тур — это новое автомобильное шоу во главе с неизменной тройкой легендарных ведущих — Джереми Кларксоном, Ричардом Хаммондом и Джеймсом Мэйем. Распрощавшись с Top Gear, они создали новое детище в области автомобильных развлекательных шоу.- -Качество: WEB-DL 720p (сэмпл)
Формат: MKV
Видео: AVC/H.264, 1280x720, ~4000 Kbps, 25.000 fps
Аудио №1: AC3, 48,0 kHz, 6 ch, 384 kb/s | AlexFilm
Аудио №2: AC3, 48,0 kHz, 6 ch, 384 kb/s | Original
Реклама: Отсутствует

Список серий

01. Прошлое, настоящее или будущее / Past, Present or Future
02. Сладкая Парочка / The Fall Guys
03. Рождественский Бугатти / Bah humbug-atti
04. Без сценария / Unscripted
05. По морям, по волнам и по фермерским полям / Up, Down and Round the Farm
06. Яяяяяяяягуары / Jaaaaaaaags
07. Бенз, бенз, бенз / Its a gas gas gas
08. Вспышки из прошлого / Blasts from the Past
09. Рекорды на амфибии / Breaking, Badly
10. О, Канада / Oh, Canada
11. Накормить мир / Feed the World

Релиз

Релиз от Kinozal
Перевод: Константин Кривоногов
Монтаж и сведение звука: Алексей Фокин
Роли озвучивали:
- Екатерина Муравицкая
- Андрей Стакионис
- Константин Погодаев
- Дмитрий Лунёв
- Кирилл Патрино
Отдельная благодарность Keedof за чистую дорожку.

MediaInfo

General
Unique ID : 205198430084964985418651634946080026235 (0x9A5FC7B4E878F5959F9B2E06B73CAE7B)
Complete name : F:\The.Grand.Tour_s02_AlexFilm\The.Grand.Tour.s02e11.WEB-DL.720p.Rus.Eng.AlexFilm.mkv
Format : Matroska
Format version : Version 4 / Version 2
File size : 1.92 GiB
Duration : 55 min 32 s
Overall bit rate mode : Variable
Overall bit rate : 4 959 kb/s
Movie name : The Grand Tour 2x11 @ AlexFilm
Encoded date : UTC 2018-02-17 10:13:32
Writing application : mkvmerge v18.0.0 ('Apricity') 64-bit
Writing library : libebml v1.3.5 + libmatroska v1.4.8
Video
ID : 1
Format : AVC
Format/Info : Advanced Video Codec
Format profile : High@L3.1
Format settings : CABAC / 5 Ref Frames
Format settings, CABAC : Yes
Format settings, ReFrames : 5 frames
Codec ID : V_MPEG4/ISO/AVC
Duration : 55 min 32 s
Bit rate mode : Variable
Bit rate : 4 189 kb/s
Maximum bit rate : 4 500 kb/s
Width : 1 280 pixels
Height : 720 pixels
Display aspect ratio : 16:9
Frame rate mode : Constant
Frame rate : 25.000 FPS
Color space : YUV
Chroma subsampling : 4:2:0
Bit depth : 8 bits
Scan type : Progressive
Bits/(Pixel*Frame) : 0.182
Stream size : 1.63 GiB (84%)
Language : English
Default : Yes
Forced : No
Color range : Limited
Color primaries : BT.709
Transfer characteristics : BT.709
Matrix coefficients : BT.709
Audio #1
ID : 2
Format : AC-3
Format/Info : Audio Coding 3
Codec ID : A_AC3
Duration : 55 min 32 s
Bit rate mode : Constant
Bit rate : 384 kb/s
Channel(s) : 6 channels
Channel positions : Front: L C R, Side: L R, LFE
Sampling rate : 48.0 kHz
Frame rate : 31.250 FPS (1536 SPF)
Bit depth : 16 bits
Compression mode : Lossy
Stream size : 153 MiB (8%)
Title : DD5.1 AlexFilm
Language : Russian
Service kind : Complete Main
Default : Yes
Forced : No
Audio #2
ID : 3
Format : AC-3
Format/Info : Audio Coding 3
Codec ID : A_AC3
Duration : 55 min 32 s
Bit rate mode : Constant
Bit rate : 384 kb/s
Channel(s) : 6 channels
Channel positions : Front: L C R, Side: L R, LFE
Sampling rate : 48.0 kHz
Frame rate : 31.250 FPS (1536 SPF)
Bit depth : 16 bits
Compression mode : Lossy
Stream size : 153 MiB (8%)
Title : DD5.1 Original
Language : English
Service kind : Complete Main
Default : No
Forced : No
Text #1
ID : 4
Format : UTF-8
Codec ID : S_TEXT/UTF8
Codec ID/Info : UTF-8 Plain Text
Duration : 53 min 36 s
Bit rate : 135 b/s
Count of elements : 834
Stream size : 53.2 KiB (0%)
Title : Russian Full
Language : Russian
Default : No
Forced : No
Text #2
ID : 5
Format : UTF-8
Codec ID : S_TEXT/UTF8
Codec ID/Info : UTF-8 Plain Text
Duration : 54 min 33 s
Bit rate : 86 b/s
Count of elements : 941
Stream size : 34.4 KiB (0%)
Title : Original Full
Language : English
Default : No
Forced : No

Скриншоты

K1riLL

Создавать темы 09.Ноя.2016 19:11

[Цитировать]

Ништяковое выступление! music

K1riLL

Создавать темы 21.Окт.2016 15:15

[Цитировать]

Раздача сетевая. Если нет сида, все равно можно скачивать.

K1riLL

Создавать темы 02.Сен.2016 23:34

[Цитировать]

«Полиглот (Итальянский с нуля за 16 часов!)» -Общая информация:-Год выпуска: 2012
Оригинальное название: Полиглот (Итальянский с нуля за 16 часов!)
Страна: Россия
Жанр: Обучающий, познавательный, лингвистика
Продолжительность: 16 x ~ 00:43:47
Режиссер: Сергей Дерябин
В главных ролях: Дмитрий Петров, Михаил Елизаров, Валерия Гай Германика, Анна Старшебаум, Анна Чурина, Александр Тютин, Анастасия Задорожная, Артём Михалков, Екатерина Соловьева-Описание:-Интеллектуальное реалити-шоу, интенсивный курс изучения иностранных языков. Преподаватель - Дмитрий Петров - полиглот (в его активе более 30 языков), психолингвист, синхронный переводчик, автор методики интенсивного обучения иностранным языкам. В группе 8 учеников. Шестеро из них - медийные лица (актёры, режиссеры, телеведущие). Все ученики или не знают изучаемого языка, или, в лучшем случае, у них остались смутные воспоминания от школьной программы. Уже на первом уроке они начинают общение на языке. С ошибками, с долгими паузами, с напряжением, но прогресс заметен сразу. На каждом уроке закрепляется пройденное и вводится новый грамматический и лексический материал. К финишу ученики овладевают основными грамматическими схемами и свободно используют их в своей речи.-Техническая информация:-    » Качество: IPTVRip
    » Контейнер: AVI
    » Видео: 720x528 (1.36:1), 25 fps, XviD build 50 ~1499 kbps avg, 0.16 bit/pixel
    » Аудио: Русский: 48 kHz, MPEG Layer 3, 2 ch, ~192.00 kbps avg
Релиз от:

MediaInfo


Общее
Полное имя                               : D:\[ЗАГРУЗКА]\Poliglot.Italyanskiy.za.16.chasov.(01-16.urok.iz.16).2012.XviD.IPTVRip.Files-x\Poliglot.Italyanskiy.za.16.chasov.(Urok.01.iz.16).2012.XviD.IPTVRip.Files-x.avi
Формат                                   : AVI
Формат/Информация                        : Audio Video Interleave
Размер файла                             : 532 Мбайт
Продолжительность                        : 43 м.
Общий поток                              : 1701 Кбит/сек
Программа кодирования                    : VirtualDubMod 1.5.10.3 | www.virtualdub-fr.org || (build 2550/release)
Библиотека кодирования                   : VirtualDubMod build 2550/release
Видео
Идентификатор                            : 0
Формат                                   : MPEG-4 Visual
Профиль формата                          : Advanced Simple@L5
Параметр BVOP формата                    : 1
Параметр QPel формата                    : Нет
Параметр GMC формата                     : Без точки перехода
Параметр матрицы формата                 : Default (H.263)
Идентификатор кодека                     : XVID
Идентификатор кодека/Подсказка           : XviD
Продолжительность                        : 43 м.
Битрейт                                  : 1499 Кбит/сек
Ширина                                   : 720 пикселей
Высота                                   : 528 пикселей
Соотношение сторон                       : 4:3
Частота кадров                           : 25,000 кадров/сек
Цветовое пространство                    : YUV
Субдискретизация насыщенности            : 4:2:0
Битовая глубина                          : 8 бит
Тип развёртки                            : Прогрессивная
Метод сжатия                             : С потерями
Бит/(Пиксели*Кадры)                      : 0.158
Размер потока                            : 469 Мбайт (88%)
Библиотека кодирования                   : XviD 1.2.1 (UTC 2008-12-04)
Аудио
Идентификатор                            : 1
Формат                                   : MPEG Audio
Версия формата                           : Version 1
Профиль формата                          : Layer 3
Идентификатор кодека                     : 55
Идентификатор кодека/Подсказка           : MP3
Продолжительность                        : 43 м.
Вид битрейта                             : Постоянный
Битрейт                                  : 192 Кбит/сек
Каналы                                   : 2 канала
Частота                                  : 48,0 КГц
Метод сжатия                             : С потерями
Размер потока                            : 60,1 Мбайт (11%)
Выравнивание                             : Соединение по промежуткам
Продолжительность промежутка             : 40  мс. (1,00 видеокадр)
Время предзагрузки промежутка            : 504  мс.
Библиотека кодирования                   : LAME3.98r
Настройки программы                      : -m s -V 4 -q 2 -lowpass 18.6 -b 192

Скриншоты

a1990g

Создавать темы 03.Сен.2016 10:09

[Цитировать]

drinks отличная передача, реально внятно доносит, надо учить языки)
p.s. спасибо большое )

Richie Tozier

Создавать темы 02.Сен.2016 21:02

[Цитировать]

164599Неее... Нормально все
Так а никто и не говорил что что-то ненормально. Просто непривычно.

K1riLL

Создавать темы 03.Сен.2016 01:52

[Цитировать]

«Полиглот (Хинди с нуля за 16 часов!)» -Общая информация:-Год выпуска: 2014
Оригинальное название: Полиглот (Хинди с нуля за 16 часов!)
Страна: Россия
Жанр: Обучающий, познавательный, лингвистика
Продолжительность: 16 x ~ 00:44:00
Режиссер: Сергей Дерябин
В главных ролях: Дмитрий Петров, Полина Осетинская, Александр Гаврилов, Алена Монахова, Максим Шаров, Алиса Ганиева, Марина Москвина, Владимир Дыховичный, Роман Шаляпин-Описание:-Интеллектуальное реалити-шоу, интенсивный курс изучения иностранных языков. Преподаватель - Дмитрий Петров - полиглот (в его активе более 30 языков), психолингвист, синхронный переводчик, автор методики интенсивного обучения иностранным языкам. В группе 8 учеников. Шестеро из них - медийные лица (актёры, режиссеры, телеведущие). Все ученики или не знают изучаемого языка, или, в лучшем случае, у них остались смутные воспоминания от школьной программы. Уже на первом уроке они начинают общение на языке. С ошибками, с долгими паузами, с напряжением, но прогресс заметен сразу. На каждом уроке закрепляется пройденное и вводится новый грамматический и лексический материал. К финишу ученики овладевают основными грамматическими схемами и свободно используют их в своей речи. Телеканал «Россия К» представляет премьеру: начиная с 26 мая, с понедельника по четверг, стартует интеллектуальное реалити-шоу «Полиглот. Хинди с нуля за 16 часов!».-Техническая информация:-    » Качество: WEBRip
    » Контейнер: MPEG-4 AVC
    » Видео: 704x528, 25 fps, ~1200 kbps avg, 0.129 bit/pixel
    » Аудио: Русский: 48 kHz, AAC, 2 ch, ~96 kbps

MediaInfo


Общее
Полное имя                               : D:\[ЗАГРУЗКА]\Полиглот. Хинди с нуля за 16 часов!\Полиглот. Хинди с нуля за 16 часов! Урок 01.mp4
Формат                                   : MPEG-4
Профиль формата                          : Base Media / Version 2
Идентификатор кодека                     : mp42 (isom)
Размер файла                             : 409 Мбайт
Продолжительность                        : 44 м.
Режим общего битрейта                    : Переменный
Общий поток                              : 1298 Кбит/сек
Дата кодирования                         : UTC 2014-05-27 07:44:14
Дата пометки                             : UTC 2014-05-27 07:44:14
Видео
Идентификатор                            : 1
Формат                                   : AVC
Формат/Информация                        : Advanced Video Codec
Профиль формата                          : High@L3
Параметр CABAC формата                   : Да
Параметр ReFrames формата                : 2 кадра
Идентификатор кодека                     : avc1
Идентификатор кодека/Информация          : Advanced Video Coding
Продолжительность                        : 44 м.
Вид битрейта                             : Постоянный
Битрейт                                  : 1200 Кбит/сек
Ширина                                   : 704 пикселя
Высота                                   : 528 пикселей
Соотношение сторон                       : 4:3
Режим частоты кадров                     : Постоянный
Частота кадров                           : 25,000 кадров/сек
Цветовое пространство                    : YUV
Субдискретизация насыщенности            : 4:2:0
Битовая глубина                          : 8 бит
Тип развёртки                            : Прогрессивная
Бит/(Пиксели*Кадры)                      : 0.129
Размер потока                            : 378 Мбайт (92%)
Язык                                     : English
Дата кодирования                         : UTC 2014-05-27 07:44:14
Дата пометки                             : UTC 2014-05-27 07:44:14
Цветовой диапазон                        : Limited
Аудио
Идентификатор                            : 2
Формат                                   : AAC
Формат/Информация                        : Advanced Audio Codec
Профиль формата                          : HE-AAC / LC
Идентификатор кодека                     : 40
Продолжительность                        : 44 м.
Вид битрейта                             : Переменный
Битрейт                                  : 96,0 Кбит/сек
Максимальный битрейт                     : 138 Кбит/сек
Каналы                                   : 2 канала
Расположение каналов                     : Front: L R
Частота                                  : 48,0 КГц / 24,0 КГц
Частота кадров                           : 23,438 кадра/сек (1024 spf)
Метод сжатия                             : С потерями
Размер потока                            : 29,8 Мбайт (7%)
Язык                                     : English
Дата кодирования                         : UTC 2014-05-27 07:44:14
Дата пометки                             : UTC 2014-05-27 07:44:14

Скриншоты

K1riLL

Создавать темы 03.Сен.2016 01:32

[Цитировать]

«Полиглот (Португальский с нуля за 16 часов!)» -Общая информация:-Год выпуска: 2015
Оригинальное название: Полиглот (Португальский с нуля за 16 часов!)
Страна: Россия
Жанр: Обучающий, познавательный, лингвистика
Продолжительность: 16 x ~ 00:44:00
Режиссер: Сергей Дерябин
В главных ролях: Дмитрий Петров, Валерия Пустовая, Павел Акимкин, Оксана Мысина, Стас Тыркин, Даша Чи, Михаил Довженко, Мария Семенова, Константин Мильчин-Описание:-Интеллектуальное реалити-шоу, интенсивный курс изучения иностранных языков. Преподаватель - Дмитрий Петров - полиглот (в его активе более 30 языков), психолингвист, синхронный переводчик, автор методики интенсивного обучения иностранным языкам. В группе 8 учеников. Это литературный критик Валерия Пустовая, актер Павел Акимкин, актриса Оксана Мысина, журналист Стас Тыркин, телеведущая Даша Чи, актер Михаил Довженко, певица Мария Семенова, журналист Константин Мильчин. Все ученики или не знают изучаемого языка, или, в лучшем случае, у них остались смутные воспоминания от школьной программы. Уже на первом уроке они начинают общение на языке. С ошибками, с долгими паузами, с напряжением, но прогресс заметен сразу. На каждом уроке закрепляется пройденное и вводится новый грамматический и лексический материал. К финишу ученики овладевают основными грамматическими схемами и свободно используют их в своей речи.-Техническая информация:-    » Качество: WEBRip
    » Контейнер: MPEG-4 AVC
    » Видео: 704x528, 25 fps, ~1200 kbps avg, 0.129 bit/pixel
    » Аудио: Русский: 48 kHz, AAC, 2 ch, ~96 kbps

MediaInfo


Общее
Полное имя                               : D:\[ЗАГРУЗКА]\Португальский\01 выпуск.mp4
Формат                                   : MPEG-4
Идентификатор кодека                     : M4V  (isom/avc1/mp42)
Размер файла                             : 408 Мбайт
Продолжительность                        : 43 м.
Режим общего битрейта                    : Переменный
Общий поток                              : 1299 Кбит/сек
Дата кодирования                         : UTC 2015-01-12 16:51:15
Дата пометки                             : UTC 2015-01-12 16:51:15
Видео
Идентификатор                            : 1
Формат                                   : AVC
Формат/Информация                        : Advanced Video Codec
Профиль формата                          : High@L3
Параметр CABAC формата                   : Да
Параметр ReFrames формата                : 2 кадра
Идентификатор кодека                     : avc1
Идентификатор кодека/Информация          : Advanced Video Coding
Продолжительность                        : 43 м.
Вид битрейта                             : Переменный
Битрейт                                  : 1200 Кбит/сек
Максимальный битрейт                     : 1600 Кбит/сек
Ширина                                   : 704 пикселя
Высота                                   : 528 пикселей
Соотношение сторон                       : 4:3
Режим частоты кадров                     : Постоянный
Частота кадров                           : 25,000 кадров/сек
Цветовое пространство                    : YUV
Субдискретизация насыщенности            : 4:2:0
Битовая глубина                          : 8 бит
Тип развёртки                            : Прогрессивная
Бит/(Пиксели*Кадры)                      : 0.129
Размер потока                            : 377 Мбайт (92%)
Дата кодирования                         : UTC 2015-01-12 16:51:15
Дата пометки                             : UTC 2015-01-12 16:51:15
Аудио
Идентификатор                            : 2
Формат                                   : AAC
Формат/Информация                        : Advanced Audio Codec
Профиль формата                          : LC
Идентификатор кодека                     : 40
Продолжительность                        : 43 м.
Вид битрейта                             : Постоянный
Битрейт                                  : 96,0 Кбит/сек
Каналы                                   : 2 канала
Расположение каналов                     : Front: L R
Частота                                  : 48,0 КГц
Частота кадров                           : 46,875 кадров/сек (1024 spf)
Метод сжатия                             : С потерями
Размер потока                            : 29,4 Мбайт (7%)
Дата кодирования                         : UTC 2015-01-12 16:51:15
Дата пометки                             : UTC 2015-01-12 16:51:15

Скриншоты

K1riLL

Создавать темы 03.Сен.2016 00:58

[Цитировать]

Качество не очень хорошее, но пока как есть.

K1riLL

Создавать темы 03.Сен.2016 00:51

[Цитировать]

«Полиглот (Китайский с нуля за 16 часов!)» -Общая информация:-Год выпуска: 2016
Оригинальное название: Полиглот (Китайский с нуля за 16 часов!)
Страна: Россия
Жанр: Обучающий, познавательный, лингвистика
Продолжительность: 16 х ~ 00:44:00
Режиссер: Сергей Дерябин
В главных ролях: Дмитрий Петров, Марк Тишман, Этери Бериашвили, Юрий Феклистов, Пелагея, Павел Ващилин, Дарья Урсуляк, Алексей Петрухин, Елена Николаева-Описание:-Интеллектуальное реалити-шоу, представляющее собой интенсивный курс изучения языка, состоящий из 16 уроков. В роли преподавателя выступает полиглот, автор уникальной методики Дмитрий Петров. Главные принципы обучения: нарастающая мотивация – эффект очевиден от урока к уроку. Язык – это не только слова, не только грамматическая структура, но и система образов, эмоций и ощущений, которые надо развивать. Это и комбинаторика – каждая новая группа слов дает на порядок больше комбинаций. Уже с первого занятия участники проекта начинают пытаться общаться на новом для себя языке. К финалу ученики овладевают основными грамматическими схемами и свободно используют их в своей речи.-Техническая информация:-    » Качество: SATRip
    » Контейнер: MPEG-4 AVC
    » Видео: 704x528, 25 fps, ~800 kbps avg, 0.086 bit/pixel
    » Аудио: Русский: 48 kHz, AAC, 2 ch, ~96 kbps

MediaInfo


Общее
Полное имя                               : D:\[ЗАГРУЗКА]\Полиглот. Китайский с нуля за 16 часов!\1.mp4
Формат                                   : MPEG-4
Идентификатор кодека                     : M4V  (isom/avc1/mp42)
Размер файла                             : 283 Мбайт
Продолжительность                        : 43 м.
Режим общего битрейта                    : Переменный
Общий поток                              : 899 Кбит/сек
Дата кодирования                         : UTC 2016-05-31 20:14:07
Дата пометки                             : UTC 2016-05-31 20:14:07
Видео
Идентификатор                            : 1
Формат                                   : AVC
Формат/Информация                        : Advanced Video Codec
Профиль формата                          : Main@L3.1
Параметр CABAC формата                   : Да
Параметр ReFrames формата                : 2 кадра
Идентификатор кодека                     : avc1
Идентификатор кодека/Информация          : Advanced Video Coding
Продолжительность                        : 43 м.
Вид битрейта                             : Переменный
Битрейт                                  : 800 Кбит/сек
Максимальный битрейт                     : 1200 Кбит/сек
Ширина                                   : 704 пикселя
Высота                                   : 528 пикселей
Соотношение сторон                       : 4:3
Режим частоты кадров                     : Постоянный
Частота кадров                           : 25,000 кадров/сек
Цветовое пространство                    : YUV
Субдискретизация насыщенности            : 4:2:0
Битовая глубина                          : 8 бит
Тип развёртки                            : Прогрессивная
Бит/(Пиксели*Кадры)                      : 0.086
Размер потока                            : 252 Мбайт (89%)
Дата кодирования                         : UTC 2016-05-31 20:14:07
Дата пометки                             : UTC 2016-05-31 20:14:07
Аудио
Идентификатор                            : 2
Формат                                   : AAC
Формат/Информация                        : Advanced Audio Codec
Профиль формата                          : LC
Идентификатор кодека                     : 40
Продолжительность                        : 43 м.
Вид битрейта                             : Постоянный
Битрейт                                  : 96,0 Кбит/сек
Каналы                                   : 2 канала
Расположение каналов                     : Front: L R
Частота                                  : 48,0 КГц
Частота кадров                           : 46,875 кадров/сек (1024 spf)
Метод сжатия                             : С потерями
Размер потока                            : 29,4 Мбайт (10%)
Дата кодирования                         : UTC 2016-05-31 20:14:08
Дата пометки                             : UTC 2016-05-31 20:14:08

Скриншоты

K1riLL

Создавать темы 03.Сен.2016 00:02

[Цитировать]

«Полиглот (Французский с нуля за 16 часов!)» -Общая информация:-Год выпуска: 2013
Оригинальное название: Полиглот (Французский с нуля за 16 часов!)
Страна: Россия
Жанр: Обучающий, познавательный, лингвистика
Продолжительность: 16 x ~ 00:44:00
Режиссер: Сергей Дерябин
В главных ролях: Николай Быстров, Вера Полозкова, Сергей Лукьяненко, Агния Кузнецова, Клим Шипенко, Соня Карпунина, Иван Жвакин, Наталья Лесниковская-Описание:-После курсов английского и итальянского, Дмитрий Петров приглашает телезрителей в мир французского языка. Неизменными остаются главные принципы обучения: нарастающая мотивация - каждый день эффект очевиден; язык - это не только слова, не только грамматическая структура, но и система образов, эмоций и ощущений - их-то и надо развивать; комбинаторика - каждая новая группа слов дает на порядок больше комбинаций.-Техническая информация:-    » Качество: SATRip
    » Контейнер: AVI
    » Видео: 640x480 (1.33:1), 25 fps, XviD build 50 ~1648 kbps avg, 0.21 bit/pixel
    » Аудио: Русский: 44.100 kHz, MPEG Layer 3, 1 ch, ~165 kbps avg

MediaInfo


Общее
Полное имя                               : D:\[ЗАГРУЗКА]\Poliglot.Viuchim.francuzskii.za.16.chasov.2013.SATRip\Poliglot.Viuchim.francuzskii.za.16.chasov.(urok.1.iz.16).2013.SATRip.avi
Формат                                   : AVI
Формат/Информация                        : Audio Video Interleave
Размер файла                             : 574 Мбайт
Продолжительность                        : 43 м.
Режим общего битрейта                    : Переменный
Общий поток                              : 1826 Кбит/сек
Программа кодирования                    : VirtualDubMod 1.5.10.3 | www.virtualdub-fr.org || (build 2550/release)
Библиотека кодирования                   : VirtualDubMod build 2550/release
Видео
Идентификатор                            : 0
Формат                                   : MPEG-4 Visual
Профиль формата                          : Advanced Simple@L5
Параметр BVOP формата                    : 2
Параметр QPel формата                    : Нет
Параметр GMC формата                     : Без точки перехода
Параметр матрицы формата                 : Default (H.263)
Идентификатор кодека                     : XVID
Идентификатор кодека/Подсказка           : XviD
Продолжительность                        : 43 м.
Битрейт                                  : 1649 Кбит/сек
Ширина                                   : 640 пикселей
Высота                                   : 480 пикселей
Соотношение сторон                       : 4:3
Частота кадров                           : 25,000 кадров/сек
Цветовое пространство                    : YUV
Субдискретизация насыщенности            : 4:2:0
Битовая глубина                          : 8 бит
Тип развёртки                            : Прогрессивная
Метод сжатия                             : С потерями
Бит/(Пиксели*Кадры)                      : 0.215
Размер потока                            : 518 Мбайт (90%)
Библиотека кодирования                   : XviD 1.2.1 (UTC 2008-12-04)
Аудио
Идентификатор                            : 1
Формат                                   : MPEG Audio
Версия формата                           : Version 1
Профиль формата                          : Layer 3
Идентификатор кодека                     : 55
Идентификатор кодека/Подсказка           : MP3
Продолжительность                        : 43 м.
Вид битрейта                             : Переменный
Битрейт                                  : 165 Кбит/сек
Номинальный битрейт                      : 192 Кбит/сек
Каналы                                   : 1 канал
Частота                                  : 44,1 КГц
Метод сжатия                             : С потерями
Размер потока                            : 52,0 Мбайт (9%)
Выравнивание                             : Соединение по промежуткам
Продолжительность промежутка             : 26  мс. (0,65 видеокадр)
Время предзагрузки промежутка            : 522  мс.
Библиотека кодирования                   : LAME3.98r
Настройки программы                      : -m m -V 4 -q 2 -lowpass 20.5 --abr 192

Скриншоты

K1riLL

Создавать темы 02.Сен.2016 23:16

[Цитировать]

«Полиглот (Немецкий с нуля за 16 часов!)» -Общая информация:-Год выпуска: 2014
Оригинальное название: Полиглот (Немецкий с нуля за 16 часов!)
Страна: Россия
Жанр: Обучающий, познавательный, лингвистика
Продолжительность: 16 х ~ 00:44:00
Режиссер: Сергей Дерябин
В главных ролях: Николай Расторгуев, Александр Снегирев, Юлия Пересильд, Алиса Хазанова, Александра Розовская, Юлия Свежакова, Иван Латушко, Артем Тульчинский-Описание:-Интеллектуальное реалити-шоу, представляющее собой интенсивный курс изучения языка, состоящий из 16 уроков. В роли преподавателя выступает полиглот, автор уникальной методики Дмитрий Петров. Главные принципы обучения: нарастающая мотивация – эффект очевиден от урока к уроку. Язык – это не только слова, не только грамматическая структура, но и система образов, эмоций и ощущений, которые надо развивать. Это и комбинаторика – каждая новая группа слов дает на порядок больше комбинаций. Уже с первого занятия участники проекта начинают пытаться общаться на новом для себя языке. К финалу ученики овладевают основными грамматическими схемами и свободно используют их в своей речи.-Техническая информация:-    » Качество: SATRip
    » Контейнер: AVI
    » Видео: 704x544 (1.29:1), 25 fps, XviD build 64 ~1582 kbps avg, 0.17 bit/pixel
    » Аудио: Русский: 48 kHz, MPEG Layer 3, 2 ch, ~128 kbps avg
Релиз от:

MediaInfo


Общее
Полное имя                               : D:\[ЗАГРУЗКА]\Poliglot.Nemeckij.za.16.chasov.2014.SATRip.SCTeam\Poliglot.Nemeckij.za.16.chasov.01.yrok.2014.SATRip.SCTeam.avi
Формат                                   : AVI
Формат/Информация                        : Audio Video Interleave
Размер файла                             : 543 Мбайт
Продолжительность                        : 43 м.
Режим общего битрейта                    : Переменный
Общий поток                              : 1730 Кбит/сек
Программа кодирования                    : VirtualDubMod 1.5.10.2 (build 2540/release)
Библиотека кодирования                   : VirtualDubMod build 2540/release
Видео
Идентификатор                            : 0
Формат                                   : MPEG-4 Visual
Профиль формата                          : Advanced Simple@L5
Параметр BVOP формата                    : 2
Параметр QPel формата                    : Нет
Параметр GMC формата                     : Без точки перехода
Параметр матрицы формата                 : Default (MPEG)
Идентификатор кодека                     : XVID
Идентификатор кодека/Подсказка           : XviD
Продолжительность                        : 43 м.
Битрейт                                  : 1583 Кбит/сек
Ширина                                   : 704 пикселя
Высота                                   : 544 пикселя
Соотношение сторон                       : 1,294
Частота кадров                           : 25,000 кадров/сек
Цветовое пространство                    : YUV
Субдискретизация насыщенности            : 4:2:0
Битовая глубина                          : 8 бит
Тип развёртки                            : Прогрессивная
Метод сжатия                             : С потерями
Бит/(Пиксели*Кадры)                      : 0.165
Размер потока                            : 497 Мбайт (92%)
Библиотека кодирования                   : XviD 64
Аудио
Идентификатор                            : 1
Формат                                   : MPEG Audio
Версия формата                           : Version 1
Профиль формата                          : Layer 3
Режим                                    : Joint stereo
Расширение режима                        : MS Stereo
Идентификатор кодека                     : 55
Идентификатор кодека/Подсказка           : MP3
Продолжительность                        : 43 м.
Вид битрейта                             : Переменный
Битрейт                                  : 128 Кбит/сек
Каналы                                   : 2 канала
Частота                                  : 48,0 КГц
Метод сжатия                             : С потерями
Размер потока                            : 41,9 Мбайт (8%)
Выравнивание                             : Соединение по промежуткам
Продолжительность промежутка             : 24  мс. (0,60 видеокадр)
Время предзагрузки промежутка            : 497  мс.
Библиотека кодирования                   : LAME3.90.
Настройки программы                      : -m j -V 4 -q 2 -lowpass 17.6 --abr 128

Скриншоты

K1riLL

Создавать темы 02.Сен.2016 22:49

[Цитировать]

«Полиглот (Испанский с нуля за 16 часов!)» -Общая информация:-Год выпуска: 2013
Оригинальное название: Полиглот (Испанский с нуля за 16 часов!)
Страна: Россия
Жанр: Обучающий, познавательный, лингвистика
Продолжительность: 16 х ~ 00:44:00
Режиссер: Сергей Дерябин
В главных ролях: Анна Аглатова, Екатерина Мечетина, Олег Долин, Мириам Сехон, Григорий Служитель, Александр Самойленко, Полина Соловьева, Любовь Толкалина-Описание:-Интенсивный курс изучения испанского языка, разработанный Дмитрием Петровым. Курс состоит из 16 уроков. В группе 8 человек, все ученики не знают испанского. Уже на первом уроке они начинают общение на языке. С ошибками, с долгими паузами, с напряжением, но прогресс заметен сразу. Участники испанского курса : Анна Аглатова - оперная певица; Екатерина Мечетина - пианистка; Олег Долин - актер; Мириам Сехон - актриса; Григорий Служитель - актер; Александр Самойленко - актер; Полина Соловьева - журналист; Любовь Толкалина - актриса.-Техническая информация:-    » Качество: SATRip
    » Контейнер: AVI
    » Видео: 704x544 (1.29:1), 25 fps, XviD build 64 ~1452 kbps avg, 0.15 bit/pixel
    » Аудио: Русский: 48 kHz, MPEG Layer 3, 2 ch, ~128.00 kbps avg
Релиз от:

MediaInfo


Общее
Полное имя                               : D:\[ЗАГРУЗКА]\Poliglot.Viychim.ispanskij.za.16.chasov.2013.SATRip.SCTeam\Poliglot.Viychim.ispanskij.za.16.chasov.(yrok.1.iz.16).2013.SATRip.SCTeam.avi
Формат                                   : AVI
Формат/Информация                        : Audio Video Interleave
Размер файла                             : 500 Мбайт
Продолжительность                        : 43 м.
Общий поток                              : 1591 Кбит/сек
Программа кодирования                    : VirtualDubMod 1.5.10.2 (build 2540/release)
Библиотека кодирования                   : VirtualDubMod build 2540/release
Видео
Идентификатор                            : 0
Формат                                   : MPEG-4 Visual
Профиль формата                          : Advanced Simple@L5
Параметр BVOP формата                    : 2
Параметр QPel формата                    : Нет
Параметр GMC формата                     : Без точки перехода
Параметр матрицы формата                 : Default (MPEG)
Идентификатор кодека                     : XVID
Идентификатор кодека/Подсказка           : XviD
Продолжительность                        : 43 м.
Битрейт                                  : 1453 Кбит/сек
Ширина                                   : 704 пикселя
Высота                                   : 544 пикселя
Соотношение сторон                       : 1,294
Частота кадров                           : 25,000 кадров/сек
Цветовое пространство                    : YUV
Субдискретизация насыщенности            : 4:2:0
Битовая глубина                          : 8 бит
Тип развёртки                            : Прогрессивная
Метод сжатия                             : С потерями
Бит/(Пиксели*Кадры)                      : 0.152
Размер потока                            : 457 Мбайт (91%)
Библиотека кодирования                   : XviD 64
Аудио
Идентификатор                            : 1
Формат                                   : MPEG Audio
Версия формата                           : Version 1
Профиль формата                          : Layer 3
Режим                                    : Joint stereo
Расширение режима                        : MS Stereo
Идентификатор кодека                     : 55
Идентификатор кодека/Подсказка           : MP3
Продолжительность                        : 43 м.
Вид битрейта                             : Постоянный
Битрейт                                  : 128 Кбит/сек
Каналы                                   : 2 канала
Частота                                  : 48,0 КГц
Метод сжатия                             : С потерями
Размер потока                            : 40,2 Мбайт (8%)
Выравнивание                             : Соединение по промежуткам
Продолжительность промежутка             : 40  мс. (1,00 видеокадр)
Время предзагрузки промежутка            : 504  мс.
Библиотека кодирования                   : LAME3.90.3

Скриншоты

 

Текущее время: 17-Июн 21:39

Часовой пояс: UTC + 3