Результатов поиска: 33

Автор Сообщение

VlasovVV

Создавать темы 07.Июл.2016 01:51

[Цитировать]

Год выпуска: 2004
Название (рус.): Курск: подводная лодка в мутной воде
Оригинальное название: Koursk: Un Sous-Marin en Eaux Troubles
Страна: Франция
Жанр: Документальный
Продолжительность: 01:12:32
Перевод: Профессиональный (одноголосый)
Русские субтитры: есть (отключаемые)
Режиссер: Жан-Мишель Карре / Jean-Michel Carré-Описание:Французский режиссер Жан-Мишель Карре (Jean-Michel Carré) в своём фильме «Курск: подводная лодка в мутных водах» (Koursk: un sous-marin en eaux troubles), который был показан 7 января 2005 на французском телевидении France 2, утверждает, что АПРК «Курск» был торпедирован американской подводной лодкой «Мемфис». Согласно его версии во время учений «Курск» должен был выполнить показательный выстрел: выпустить новую ракету-торпеду "Шквал", передвигающуюся под водой со скоростью 500 км/ч (в то время как обыкновенная торпеда движется со скоростью 70 км/ч). На эти учения была приглашена китайская делегация военных. Можно предположить, что Россия планировала продать Китаю столь мощное оружие. Но в США знали об этом и не могли допустить, чтобы у Китая появился "Шквал". Поэтому за проводимыми учениями также пристально наблюдали две американские подводные лодки: «Мемфис» и «Толедо». В один момент «Курск» и «Толедо» столкнулись (видеозапись лежащего на дне «Курска» показывает длинные разрывы на его корпусе) и, чтобы предотвратить выстрел «Курска» в «Толедо», (предполагается, что экипажем «Мемфис» было услышано открытие трубы торпедного аппарата «Курска»), «Мемфис» выстрелил торпедой Mk-48 по «Курску».
Карре утверждает, что российский президент Владимир Путин преднамеренно скрыл правду об истинных причинах гибели «Курска», чтобы не допустить резкого ухудшения отношений с США.
Этой же версии придерживаются канадские документалисты и многие отставные военные.
-Доп. информация:
Фильм снят при участии: France 2 television
Премьера: 25 октября 2004 года в Бельгии
покзан на канале France 2 7-го января 2005 года (программа "Против течения")-    -Качество: DVD5
Контейнер: DVD Video
Видео: MPEG2 Video 720x576 (4:3) 25fps 4 612 Kbps
Аудио#1: Русский: 48.0 kHz, AC3 Dolby Digital, 2 ch, 192kbps (профессиональный одноголосый)
Аудио#2: Французский: 48.0 kHz, MPEG1, 2 ch, 192kbps (профессиональный многоголосый)
Субтитры: Русские, DVD Subpicture-

DVDInfo

Title: Курск. Подводная лодка в мутной воде
Size: 2.35 Gb ( 2 468 166,00 KBytes ) - DVD-5
Enabled regions: 1, 2, 3, 4, 5, 6, 7, 8
VTS_01 :
  Play Length: 01:12:32+00:00:32
  Video: PAL 4:3 (720x576) VBR
  Audio:
      Russian (Dolby AC3, 2 ch)
      Francais (MPEG1, 2 ch)
  Subtitles:
      Russian
      Russian
* Menus Information *
VIDEO_TS Menu
Video:
      PAL 4:3 (720x576) VBR
English Language Unit :
      Title Menu
VTS_01 Menu
Video:
      PAL 4:3 (720x576) VBR
English Language Unit :
      Root Menu

Скриншоты

Lucius

Создавать темы 20.Апр.2016 18:43

[Цитировать]

140211BDRip
огромное спасибо за бдрип yahoo , смотрел на английском как вышло, одна из любимых групп, посмотрю еще раз на русском. Оne more time, mmmm... Celebration.
https://www.youtube.com/watch?v=FGBhQbmPwH8
konечно Derezzed
https://vk.com/video152780759_167674656?list=b351adbcf7ca9baaf5
https://www.youtube.com/watch?v=m4cgLL8JaVI

SamFisher43

Создавать темы 20.Апр.2016 17:45

[Цитировать]

Документалка снята просто шикарно. Те, кто любят электронную музыку, но еще не знакомы с творчеством этого дуэта - обязательно посмотрите. Возможно вы откроете для себя новых кумиров. А фанаты просто узнают немного нового об этих ребятах

SamFisher43

Создавать темы 20.Апр.2016 17:40

[Цитировать]

«Daft Punk. Освобожденные / Daft Punk Unchained»- Общая информация:-Год выпуска: 2015
Название (рус.): Daft Punk. Освобожденные
Оригинальное название: Daft Punk Unchained
Страна: Франция
Жанр: документальный
Продолжительность: 85 мин. / 01:25
Перевод: Многоголосый закадровый, профессиональный
Субтитры: Нет
Режиссер: Эрве Мартин-Дельпьерр
В главных ролях: Томас Бангальтер, Ги-Мануэль Де Омем-Кристо, Тодд Эдвардс, Тони Гарднер и др.
    -Описание:-Фильм рассказывает об истории становлении легендарного французского электронного дуэта Daft Punk, о переломных моментах в его карьере и содержит интервью людей, которым посчастливилось работать с группой за последние 20 лет.-Техническая информация:-    » Качество: BDRip 1080p
    » Контейнер: mkv (matroska)
    » Видео: AVC, 1920x1080 (16:9), 25.000 fps, 9 670 Kbps (0.187 bit/pixel)
    » Аудио #1: Русский: AAC LC, 44.1 KHz, 2 ch (Многоголосый закадровый, профессиональный)
    » Аудио #2: Английский: DTS, 48.0 KHz, 6 ch, 1 510 Kbps, CBR

Medianfo

Общее
Уникальный идентификатор : 241310850780544213302554584351452608547 (0xB58AC782FB76D19BA2E48796B56AB823)
Полное имя : Daft.Punk.Unchained.2015.2015.1080p.rus.mkv
Формат : Matroska
Версия формата : Version 4 / Version 2
Размер файла : 6,63 Гбайт
Продолжительность : 1 ч. 23 м.
Общий поток : 11,3 Мбит/сек
Дата кодирования : UTC 2015-12-08 13:58:26
Программа кодирования : mkvmerge v7.3.0 ('Nouages') 32bit built on Oct 22 2014 18:44:01
Библиотека кодирования : libebml v1.3.0 + libmatroska v1.4.1
DURATION : 01:23:53.250000000
NUMBER_OF_FRAMES : 216764
NUMBER_OF_BYTES : 80526730
_STATISTICS_WRITING_APP : mkvmerge v7.3.0 ('Nouages') 32bit built on Oct 22 2014 18:44:01
_STATISTICS_WRITING_DATE_UTC : 2015-12-08 13:58:26
_STATISTICS_TAGS : BPS DURATION NUMBER_OF_FRAMES NUMBER_OF_BYTES
Видео
Идентификатор : 1
Формат : AVC
Формат/Информация : Advanced Video Codec
Профиль формата : High@L4.1
Параметр CABAC формата : Да
Параметр ReFrames формата : 4 кадра
Идентификатор кодека : V_MPEG4/ISO/AVC
Продолжительность : 1 ч. 23 м.
Номинальный битрейт : 9670 Кбит/сек
Ширина : 1920 пикселей
Высота : 1080 пикселей
Соотношение сторон : 16:9
Режим частоты кадров : Постоянный
Частота кадров : 25,000 кадров/сек
Цветовое пространство : YUV
Субдискретизация насыщенности : 4:2:0
Битовая глубина : 8 бит
Тип развёртки : Прогрессивная
Бит/(Пиксели*Кадры) : 0.187
Заголовок : DEAL - Daft Punk - 1080p
Библиотека кодирования : x264 core 148 r2638 7599210
Настройки программы : cabac=1 / ref=4 / deblock=1:0:0 / analyse=0x3:0x133 / me=umh / subme=7 / psy=1 / psy_rd=1.00:0.00 / mixed_ref=1 / me_range=16 / chroma_me=1 / trellis=1 / 8x8dct=1 / cqm=0 / deadzone=21,11 / fast_pskip=0 / chroma_qp_offset=-2 / threads=16 / lookahead_threads=2 / sliced_threads=0 / nr=0 / decimate=1 / interlaced=0 / bluray_compat=0 / constrained_intra=0 / bframes=3 / b_pyramid=2 / b_adapt=1 / b_bias=0 / direct=1 / weightb=1 / open_gop=0 / weightp=2 / keyint=250 / keyint_min=25 / scenecut=40 / intra_refresh=0 / rc_lookahead=40 / rc=2pass / mbtree=1 / bitrate=9670 / ratetol=1.0 / qcomp=0.60 / qpmin=0 / qpmax=69 / qpstep=4 / cplxblur=20.0 / qblur=0.5 / ip_ratio=1.40 / aq=1:1.00
Язык : English
Default : Да
Forced : Нет
Аудио #1
Идентификатор : 2
Формат : AAC
Формат/Информация : Advanced Audio Codec
Профиль формата : LC
Идентификатор кодека : A_AAC
Продолжительность : 1 ч. 23 м.
Каналы : 2 канала
Расположение каналов : Front: L R
Частота : 44,1 КГц
Метод сжатия : С потерями
Язык : Russian
Default : Да
Forced : Нет
Аудио #2
Идентификатор : 3
Формат : DTS
Формат/Информация : Digital Theater Systems
Режим : 16
Параметр Endianness формата : Big
Идентификатор кодека : A_DTS
Продолжительность : 1 ч. 23 м.
Вид битрейта : Постоянный
Битрейт : 1509 Кбит/сек
Каналы : 6 каналов
Расположение каналов : Front: L C R, Side: L R, LFE
Частота : 48,0 КГц
Битовая глубина : 24 бит
Метод сжатия : С потерями
Размер потока : 906 Мбайт (13%)
Заголовок : English DTS
Язык : English
Default : Нет
Forced : Нет

Скриншоты

            

maloicot

Создавать темы 30.Ноя.2015 15:29

[Цитировать]

посмотрим carnby

greenfungus

Создавать темы 23.Авг.2015 20:42

[Цитировать]

надо бы глянуть, спасибо, качаю

t1coon

Создавать темы 25.Июн.2015 14:00

[Цитировать]

Спасибо заберу попозже

Zobaken

Создавать темы 25.Июн.2015 10:58

[Цитировать]

- Брони: неожиданно взрослые поклонники Моих Маленьких Пони / Bronies: The Extremely Unexpected Adult Fans of My Little Pony- Общая информация:-Страна: США
Год: 2012
Жанр: документальный
Режиссер: Лоран Малакваис
Продолжительность: 01:28:18
Перевод: одноголосый, закадровый [DubbingIsMagic]
Субтитры: русские, встроенные [Notabenoid]-    -Описание:-Это полнометражный документальный фильм, исследующий культурный феномен так называемых «брони» - сообщества, в основном состоящего из молодых людей мужского пола, которым нравится мультсериал "My Little Pony: Friendship Is Magic". Было бы сложно найти ещё более уникальное и неожиданное культурное явление, чем брони. Почему этим парням нравится мультик, предназначенный для маленьких девочек? И почему они готовы ради него терпеть насмешки общества за эту любовь? В фильме показывается, что основные элементы сюжета "My Little Pony: Friendship Is Magic" - Честность, Доброта, Смех, Щедрость, Верность и Магия - это нечто универсальное, нечто, что находится вне рамок возраста и пола. Брони превосходят все рамки рядового стремления общества к добру. Фильм демонстрирует эпизоды из жизни брони со всего света. У каждого - своя уникальная история, ведь их дорога к миру My Little Pony проходит через разные конвенты: в Германии, в Англии и самый большой из всех - BronyCon в США.-Фильм был профинансирован на Кикстартере и вместо планировавшихся 60,000$ собрал 300,000$.-Особенности релиза:-    » Формат: MKV | WEB-DL 720p
    » Видео: AVC, 1280x720, 23.976 fps, ~3572 kbps
    » Аудио:
    » Аудио 1: Russian, AC3, 48 kHz, 2 ch, 192 kbps | одноголосый, закадровый [DubbingIsMagic]
    » Аудио 2: English, AC3, 48 kHz, 2 ch, 192 kbps
    » Субтитры: русские, встроенные [Notabenoid]-MediaInfo:-

MediaInfo

Общее
Уникальный идентификатор                 : 236436724850011927088273382373294817958 (0xB1E00E8CAEC886B898396FC9DAD742A6)
Полное имя                               : D:\Документальное кино\Bronies - The Extremely Unexpected Adult Fans of My Little Pony\Bronies.The Extremely.Unexpected.Adult.Fans.of.My.Little Pony.2012.720p.mkv
Формат                                   : Matroska
Версия формата                           : Version 2
Размер файла                             : 2,49 Гбайт
Продолжительность                        : 1 ч. 28 м.
Общий поток                              : 4036 Кбит/сек
Дата кодирования                         : UTC 2013-03-23 16:05:37
Программа кодирования                    : mkvmerge v5.8.0 ('No Sleep / Pillow') built on Sep  2 2012 15:37:04
Библиотека кодирования                   : libebml v1.2.3 + libmatroska v1.3.0
Видео
Идентификатор                            : 1
Формат                                   : AVC
Формат/Информация                        : Advanced Video Codec
Профиль формата                          : Baseline@L4.0
Параметр CABAC формата                   : Нет
Параметр ReFrames формата                : 3 кадра
Параметр GOP формата                     : M=1, N=72
Идентификатор кодека                     : V_MPEG4/ISO/AVC
Продолжительность                        : 1 ч. 28 м.
Битрейт                                  : 3572 Кбит/сек
Ширина                                   : 1280 пикселей
Высота                                   : 720 пикселей
Соотношение сторон                       : 16:9
Режим частоты кадров                     : Постоянный
Частота кадров                           : 23,976 кадра/сек
Стандарт вещания                         : NTSC
Цветовое пространство                    : YUV
Субдискретизация насыщенности            : 4:2:0
Битовая глубина                          : 8 бит
Тип развёртки                            : Прогрессивная
Бит/(Пиксели*Кадры)                      : 0.162
Размер потока                            : 2,20 Гбайт (88%)
Заголовок                                : Bronies.The Extremely.Unexpected.Adult.Fans.of.My.Little Pony.AVC.WEB-DL.(720p)
Язык                                     : English
Default                                  : Да
Forced                                   : Нет
colour_range                             : Limited
Аудио #1
Идентификатор                            : 2
Формат                                   : AC-3
Формат/Информация                        : Audio Coding 3
Расширение режима                        : CM (complete main)
Параметр Endianness формата              : Big
Идентификатор кодека                     : A_AC3
Продолжительность                        : 1 ч. 28 м.
Вид битрейта                             : Постоянный
Битрейт                                  : 192 Кбит/сек
Каналы                                   : 2 канала
Расположение каналов                     : Front: L R
Частота                                  : 48,0 КГц
Битовая глубина                          : 16 бит
Метод сжатия                             : С потерями
Размер потока                            : 121 Мбайт (5%)
Заголовок                                : DD 2.0 192 kbps- Любительский одноголосый (DubbingIsMagic)
Язык                                     : Russian
Default                                  : Да
Forced                                   : Нет
Аудио #2
Идентификатор                            : 4
Формат                                   : AC-3
Формат/Информация                        : Audio Coding 3
Расширение режима                        : CM (complete main)
Параметр Endianness формата              : Big
Идентификатор кодека                     : A_AC3
Продолжительность                        : 1 ч. 28 м.
Вид битрейта                             : Постоянный
Битрейт                                  : 192 Кбит/сек
Каналы                                   : 2 канала
Расположение каналов                     : Front: L R
Частота                                  : 48,0 КГц
Битовая глубина                          : 16 бит
Метод сжатия                             : С потерями
Размер потока                            : 121 Мбайт (5%)
Заголовок                                : DD 2.0 192 kbps - Original
Язык                                     : English
Default                                  : Нет
Forced                                   : Нет
Текст
Идентификатор                            : 3
Формат                                   : UTF-8
Идентификатор кодека                     : S_TEXT/UTF8
Идентификатор кодека/Информация          : UTF-8 Plain Text
Заголовок                                : Rus.Sub - Notabenoid (MidnightFun, ProFox, Yurick26)
Язык                                     : Russian
Default                                  : Да
Forced                                   : Нет
-Скриншоты:-

Скриншоты

                                    

Notpruff

Создавать темы 30.Ноя.2015 00:58

[Цитировать]

109757 Там конечно нет такой научной фантастики
Да ладно? пичаль тогды cray Ждем Сербский фильм, Свадебную вазу и Девочку-Пулемет.

SamFisher43

Создавать темы 29.Ноя.2015 23:09

[Цитировать]

Notpruff, нормальный фильм. Мне понравился sarcastic Там конечно нет такой научной фантастики, как в Интерстеллар или Люси (Рома поймет bububu ), но тоже не плохо

Notpruff

Создавать темы 29.Ноя.2015 22:02

[Цитировать]

божечки из каких помоек ты это достал? хотя понятно из каких буим знакомы azazelo35 spiteful

SamFisher43

Создавать темы 29.Ноя.2015 18:12

[Цитировать]

«Конструктор красного цвета / Engineering Red»- Общая информация:-Год выпуска: 1993
Название (рус.): Конструктор красного цвета
Оригинальное название: Engineering Red
Страна: Россия
Жанр: документальный, фантастика, триллер
Продолжительность: 1:15:30
Перевод: Не требуется
Субтитры: Нет
Режиссер: Андрей И, Армен Петросян
В главных ролях: Анна Семкина
    -Описание:-Фильм разделен на три главы и имеет две сюжетные линии, одна из которых художественная, а другая документальная. В художественной линии визуальный ряд состоит в основном из однотипных кадров: красная комната, молодая девушка в красном шелке. Женский голос за кадром читает как бы мысли некоего умирающего солдата, например, его размышления о трактовке слова «близнец», которое встречается в одном из библейских эпизодов. Документальная часть фильма составлена из натуральных съемок операций по пересадке пальцев ног на кисть руки человека; коротких моментов из жизни сросшихся близнецов; вырезок, возможно, агитационного фильма для врачей по использованию трупной крови в практической медицине и пр.
Жанр фильма можно определить как художественно-документальный.
В основе сценария лежит роман Томаса Манна «Волшебная Гора» (1924 г.) вкупе с идеей о создании в СССР (в 1940—1950-х годах) искусственных людей.
В фильме применена подлинная кинодокументация периода 1938—1980 годов.-Техническая информация:-    » Качество: DVDRip
    » Контейнер: avi
    » Видео: MPEG4, XviD, 1080x720 (3:2), 25.000 fps, 2 976 Kbps (0.153 bit/pixel)
    » Аудио #1: Русский: MP3, 44.1 KHz, 2 ch, 128 Kbps, CBR

Medianfo

General
Complete name : Конструктор красного цвета (1993.avi
Format : AVI
Format/Info : Audio Video Interleave
Format profile : OpenDML
File size : 1.64 GiB
Duration : 1h 15mn
Overall bit rate : 3 117 Kbps
Writing application : MEncoder SVN-r33883(20110719-gcc4.5.2)
Writing library : MPlayer
Video
ID : 0
Format : MPEG-4 Visual
Format profile : Advanced Simple@L5
Format settings, BVOP : 3
Format settings, QPel : No
Format settings, GMC : No warppoints
Format settings, Matrix : Default (H.263)
Codec ID : XVID
Codec ID/Hint : XviD
Duration : 1h 15mn
Bit rate : 2 976 Kbps
Width : 1 080 pixels
Height : 720 pixels
Display aspect ratio : 3:2
Original display aspect ratio : 3:2
Frame rate : 25.000 fps
Color space : YUV
Chroma subsampling : 4:2:0
Bit depth : 8 bits
Scan type : Progressive
Compression mode : Lossy
Bits/(Pixel*Frame) : 0.153
Stream size : 1.57 GiB (95%)
Writing library : XviD 1.2.1 (UTC 2008-12-04)
Audio
ID : 1
Format : MPEG Audio
Format version : Version 1
Format profile : Layer 3
Mode : Joint stereo
Mode extension : MS Stereo
Codec ID : 55
Codec ID/Hint : MP3
Duration : 1h 15mn
Bit rate mode : Constant
Bit rate : 128 Kbps
Channel(s) : 2 channels
Sampling rate : 44.1 KHz
Compression mode : Lossy
Delay relative to video : 40ms
Stream size : 69.1 MiB (4%)
Alignment : Aligned on interleaves
Interleave, duration : 26 ms (0.65 video frame)
Interleave, preload duration : 522 ms
Writing library : LAME3.98.4
Фильм содержит шокирующие кадры. Не рекомендуется к просмотру впечатлительным и слабонервным людям.

Скриншоты

            

VlasovVV

Создавать темы 04.Июн.2015 23:45

[Цитировать]

2 скачавших есть, так что раздача не помрёт good
Скачал: Ruff, VlasovVV

Belros

Создавать темы 04.Июн.2015 23:03

[Цитировать]

Ruff
Вы совершенно правы во всём.На другом ресурсе,где 4 с лишним млн. человек,этот фильм с 12 апреля скачан 150 раз.

Ruff

Создавать темы 04.Июн.2015 20:26

[Цитировать]

Belros,
-На трекере 5000 человек,активных пользователей (т.е. те,кто отсюда регулярно что-либо качает) в разы меньше
-Данный фильм могли уже скачать с другого трекера
-Кому-то данный фильм просто не интересен
-Кто-то даже не видит что в разделе фильмы появилась эта раздача
-У кого-то монитор с разрешением 4K и фильм с картинкой 1024 x 576 смотреть в большом разрешении как-то глупо
-"Зарегистрирован: 19 часов" может быть через неделю будет написано что скачано 10 раз
-Это документалка, этот жанр обречен на узкий круг зрителей
 

Текущее время: 20-Июн 00:30

Часовой пояс: UTC + 3