Результатов поиска: 13

Автор Сообщение

Mesivo

Создавать темы 15.Апр.2019 07:35

[Цитировать]

306080странно на рутрекере написано
Перевод: Любительский (многоголосый закадровый) HDRezka Studio
а у вас он стал профессиональным!
п.с. пару раз смотрел видео с их переводом, сказать что не понравилось, ничего не сказать
hdrezka нелюбительский, там проф. у меня звукарь там знакомый

Sergey3695

Создавать темы 14.Апр.2019 22:15

[Цитировать]

Ruff, Любительский thank_you

Ruff

Создавать темы 14.Апр.2019 22:12

[Цитировать]

Карамелька, я перезаливал с руторга, там написано blush2
Перевод: Профессиональный (многоголосый, закадровый) HDRezka Studio
я думаю модератор раздела скажет как правильнее написать

Карамелька

Создавать темы 14.Апр.2019 18:20

[Цитировать]

странно на рутрекере написано
Перевод: Любительский (многоголосый закадровый) HDRezka Studio
а у вас он стал профессиональным!
п.с. пару раз смотрел видео с их переводом, сказать что не понравилось, ничего не сказать

Ruff

Создавать темы 13.Апр.2019 11:02

[Цитировать]

«Закатать в асфальт / Dragged Across Concrete» Год выхода: 2018
Название: Закатать в асфальт
Оригинальное название: Dragged Across Concrete
Продолжительность: 02:38:30
Страна: Канада, США
Жанр: Боевик, триллер, драма, криминал
Режиссер: С. Крэйг Залер
В ролях: Мэл Гибсон, Винс Вон, Дженнифер Карпентер, Майкл Джей Уайт, Лори Холден, Дон Джонсон, Томас Кречманн, Удо Кир, Лианнет Боррего, Джастин Уоррингтон
Перевод: Профессиональный (многоголосый, закадровый) | HDRezka studio
Субтитры: Русские, Английские

Описание:
Старого ищейку Риджмана и безбашенного Энтони отстраняют от дел после того, как в сеть попадает видео, где напарники жестко выбивают признание из подозреваемого. Не имея других средств к существованию, экс-копы находят работу в криминальном подполье, где их главным врагом становится вышедший из тюрьмы Генри Джонс, мечтающий о мести полиции.
    
Файл:
Кодек: H.264
Качество: WEB-DL 1080p
Видео: AVC, 1920x800 (2.40:1), 23.976 fps, 5000 kb/s
Аудио #1: AC3, 48 kHz, 2 ch, 192 kb/s (Russian)
Аудио #2: Е-AC3, 48 kHz, 6 ch, 640 kb/s (English)
    
    

Скриншоты

        

MediaInfo


Общее
Уникальный идентификатор: 205061052333681028100752562341034208563 (0x9A455275E98EBCEE9CFF5B6A0E3E2D33)
Полное имя: H:Dragged.Across.Concrete.2018.1080p.AMZN.WEB-DL..MegaPeer.(qqss44).mkv
Формат: Matroska
Версия формата: Version 2
Размер файла: 6,44 Гбайт
Продолжительность: 2 ч. 38 м.
Общий поток: 5819 Кбит/сек
Дата кодирования: UTC 2019-04-12 16:37:59
Программа кодирования: mkvmerge v7.8.0 ('River Man') 32bit built on Apr 3 2015 12:11:22
Библиотека кодирования: libebml v1.3.1 + libmatroska v1.4.2
Видео
Идентификатор: 1
Формат: AVC
Формат/Информация: Advanced Video Codec
Профиль формата: High@L4
Параметр CABAC формата: Да
Параметр ReFrames формата: 4 кадра
Идентификатор кодека: V_MPEG4/ISO/AVC
Продолжительность: 2 ч. 38 м.
Вид битрейта: Постоянный
Битрейт: 4871 Кбит/сек
Номинальный битрейт: 10000 Кбит/сек
Ширина: 1920 пикселей
Высота: 800 пикселей
Соотношение сторон: 2,40:1
Режим частоты кадров: Постоянный
Частота кадров: 23,976 (24000/1001) кадра/сек
Цветовое пространство: YUV
Субдискретизация насыщенности: 4:2:0
Битовая глубина: 8 бит
Тип развёртки: Прогрессивная
Бит/(Пиксели*Кадры): 0.132
Размер потока: 5,39 Гбайт (84%)
Default: Да
Forced: Нет
Цветовой диапазон: Limited
Основные цвета: BT.709
Характеристики трансфера: BT.709
Коэффициенты матрицы: BT.709
Аудио #1
Идентификатор: 2
Формат: AC-3
Формат/Информация: Audio Coding 3
Расширение режима: CM (complete main)
Параметр Endianness формата: Big
Идентификатор кодека: A_AC3
Продолжительность: 2 ч. 38 м.
Вид битрейта: Постоянный
Битрейт: 192 Кбит/сек
Каналы: 2 канала
Расположение каналов: Front: L R
Частота: 48,0 КГц
Частота кадров: 31,250 кадров/сек (1536 spf)
Метод сжатия: С потерями
Размер потока: 218 Мбайт (3%)
Язык: Russian
Default: Да
Forced: Нет
Аудио #2
Идентификатор: 3
Формат: E-AC-3
Формат/Информация: Audio Coding 3
Параметр Endianness формата: Big
Идентификатор кодека: A_EAC3
Продолжительность: 2 ч. 38 м.
Вид битрейта: Постоянный
Битрейт: 640 Кбит/сек
Каналы: 6 каналов
Расположение каналов: Front: L C R, Side: L R, LFE
Частота: 48,0 КГц
Частота кадров: 187,500 кадров/сек (256 spf)
Метод сжатия: С потерями
Размер потока: 726 Мбайт (11%)
Язык: English
Default: Нет
Forced: Нет
Текст #1
Идентификатор: 4
Формат: UTF-8
Идентификатор кодека: S_TEXT/UTF8
Идентификатор кодека/Информация: UTF-8 Plain Text
Язык: Russian
Default: Нет
Forced: Нет
Текст #2
Идентификатор: 5
Формат: UTF-8
Идентификатор кодека: S_TEXT/UTF8
Идентификатор кодека/Информация: UTF-8 Plain Text
Язык: English
Default: Нет
Forced: Нет
Текст #3
Идентификатор: 6
Формат: UTF-8
Идентификатор кодека: S_TEXT/UTF8
Идентификатор кодека/Информация: UTF-8 Plain Text
Заголовок: SDH
Язык: English
Default: Нет
Forced: Нет

Ruff

Создавать темы 13.Апр.2019 10:38

[Цитировать]

«Закатать в асфальт / Dragged Across Concrete» Год выхода: 2018
Название: Закатать в асфальт
Оригинальное название: Dragged Across Concrete
Продолжительность: 02:38:30
Страна: Канада, США
Жанр: Боевик, триллер, драма, криминал
Режиссер: С. Крэйг Залер
В ролях: Мэл Гибсон, Винс Вон, Дженнифер Карпентер, Майкл Джей Уайт, Лори Холден, Дон Джонсон, Томас Кречманн, Удо Кир, Лианнет Боррего, Джастин Уоррингтон
Перевод: Профессиональный (многоголосый, закадровый) | HDRezka studio
Субтитры: Отсутствуют

Описание:
Старого ищейку Риджмана и безбашенного Энтони отстраняют от дел после того, как в сеть попадает видео, где напарники жестко выбивают признание из подозреваемого. Не имея других средств к существованию, экс-копы находят работу в криминальном подполье, где их главным врагом становится вышедший из тюрьмы Генри Джонс, мечтающий о мести полиции.
    
Файл:
Качество: WEB-DLRip
Видео: XviD, 1178 Кбит/с, 720x304
Аудио: Русский (MP3, 2 ch, 128 Кбит/с)
    
    

Скриншоты

        

MediaInfo

Общее
Полное имя                               : Q:\Dragged.Across.Concrete.2018.AMZN.WEB-DLRip.1.46Gb.MegaPeer.avi
Формат                                   : AVI
Формат/Информация                        : Audio Video Interleave
Размер файла                             : 1,46 Гбайт
Продолжительность                        : 2 ч. 38 м.
Общий поток                              : 1316 Кбит/сек
Программа кодирования                    : VirtualDubMod 1.5.10.3 | www.virtualdub-fr.org || (build 2550/release)
Библиотека кодирования                   : VirtualDubMod build 2550/release
Видео
Идентификатор                            : 0
Формат                                   : MPEG-4 Visual
Профиль формата                          : Advanced Simple@L5
Настройки формата                        : BVOP1 / Custom Matrix
Параметр BVOP формата                    : 1
Параметр QPel формата                    : Нет
Параметр GMC формата                     : Без точки перехода
Параметр матрицы формата                 : Выборочная
Идентификатор кодека                     : XVID
Идентификатор кодека/Подсказка           : XviD
Продолжительность                        : 2 ч. 38 м.
Битрейт                                  : 1179 Кбит/сек
Ширина                                   : 720 пикселей
Высота                                   : 304 пикселя
Соотношение сторон                       : 2,35:1
Частота кадров                           : 23,976 (24000/1001) кадра/сек
Цветовое пространство                    : YUV
Субдискретизация насыщенности            : 4:2:0
Битовая глубина                          : 8 бит
Тип развёртки                            : Прогрессивная
Метод сжатия                             : С потерями
Бит/(Пиксели*Кадры)                      : 0.225
Размер потока                            : 1,30 Гбайт (90%)
Библиотека кодирования                   : XviD 73
Аудио
Идентификатор                            : 1
Формат                                   : MPEG Audio
Версия формата                           : Version 1
Профиль формата                          : Layer 3
Идентификатор кодека                     : 55
Идентификатор кодека/Подсказка           : MP3
Продолжительность                        : 2 ч. 38 м.
Вид битрейта                             : Постоянный
Битрейт                                  : 128 Кбит/сек
Каналы                                   : 2 канала
Частота                                  : 48,0 КГц
Частота кадров                           : 41,667 кадра/сек (1152 SPF)
Метод сжатия                             : С потерями
Размер потока                            : 145 Мбайт (10%)
Выравнивание                             : Соединение по промежуткам
Продолжительность промежутка             : 42  мс. (1,00 видеокадр)
Время предзагрузки промежутка            : 504  мс.
Библиотека кодирования                   : LAME3.99r
Настройки программы                      : -m s -V 4 -q 2 -lowpass 17 -b 128

A1kaida

Создавать темы 14.Мар.2019 07:00

[Цитировать]

из-за "рисовки" смотреть не смог... будто тормозит все

Ma3xZ

Создавать темы 12.Мар.2019 22:54

[Цитировать]

Sergey3695, например я, пипкун и свин-паук prankster

Sergey3695

Создавать темы 12.Мар.2019 21:32

[Цитировать]

301535от тех кто в теме происходящего

Кто эти люди? sarcastic

t1coon

Создавать темы 12.Мар.2019 20:49

[Цитировать]

301530Странно, что такие высокие оценки. Даже племяшка больше получаса не выдержала. dntknw
Высокие оценки от тех кто в теме происходящего. Это очень хорошо видно по выходящим людям из зала после окончания фильмов марвел. Для них это просто очередной фильм не о чем, а для фанатов огромная вселенная

jeycon

Создавать темы 12.Мар.2019 20:37

[Цитировать]

Странно, что такие высокие оценки. Даже племяшка больше получаса не выдержала. dntknw

Ruff

Создавать темы 11.Мар.2019 22:41

[Цитировать]


Человек-паук: Через вселенные / Spider-Man: Into the Spider-Verse
-Год выпуска: 2018
Страна: США
Жанр: Мультфильм, фантастика, комедия, приключения, семейный, полнометражный
Продолжительность: 01:56:50
Перевод: Дублированный | iTunes
Режиссёр: Боб Персичетти, Питер Рэмзи, Родни Ротман
В ролях: Шамеик Мур, Джейк Джонсон, Хейли Стайнфелд, Махершала Али, Брайан Тайри Генри, Лили Томлин, Лорен Велес, Зои Кравиц, Джон Мулэйни, Кимико Гленн, Николас Кейдж, Кэтрин Хан, Лив Шрайбер, Крис Пайн, Натали Моралес, Эдвин Хэбакон, Оскар Айзек, Грета Ли, Стэн Ли, Йорма Такконе
Описание: Мы всё знаем о Питере Паркере. Он спас город, влюбился, а потом спасал город снова и снова… Но все это — в нашем измерении. А что если в результате работы гигантского коллайдера откроется окно из одного измерения в другое? Найдется ли в нем свой Человек-паук? И как он будет выглядеть? Приготовьтесь к тому, что в разных вселенных могут быть разные Люди-пауки и однажды им придется собраться вместе для борьбы с почти непобедимым врагом.-     -Техническая информация:
Качество: BDRip 1080p
Контейнер: MKV
Видео: MPEG-4 AVC, 1920x804, 14.7 Mbit/s, 23.976 fps
]Аудио №1: Русский 48 kHz, AC3, 5.1, 384 Kbps | iTunes
Аудио №2: Английский 48 kHz, DTS, 5.1, 1510 Kbps
Субтитры: Русские (Full), украинские (Full), Английские

MediaInfo


General
Unique ID : 104538015614456995050851142846146912782 (0x4EA54A1A0AC48248E4EE70A8A71BA20E)
Complete name : D:Video111Spider-Man.Into.the.Spider-Verse.2018.BDRip.1080p.seleZen.mkv
Format : Matroska
Format version : Version 4
File size : 13.6 GiB
Duration : 1 h 56 min
Overall bit rate : 16.6 Mb/s
Encoded date : UTC 2019-03-10 22:51:24
Writing application : mkvmerge v31.0.0 ('Dolores In A Shoestand') 64-bit
Writing library : libebml v1.3.6 + libmatroska v1.4.9
Video
ID : 1
Format : AVC
Format/Info : Advanced Video Codec
Format profile : High@L4.1
Format settings : CABAC / 5 Ref Frames
Format settings, CABAC : Yes
Format settings, ReFrames : 5 frames
Codec ID : V_MPEG4/ISO/AVC
Duration : 1 h 56 min
Bit rate : 14.7 Mb/s
Width : 1 920 pixels
Height : 804 pixels
Display aspect ratio : 2.40:1
Frame rate mode : Constant
Frame rate : 23.976 (24000/1001) FPS
Color space : YUV
Chroma subsampling : 4:2:0
Bit depth : 8 bits
Scan type : Progressive
Bits/(Pixel*Frame) : 0.398
Stream size : 12.0 GiB (89%)
Title : MTeam
Writing library : x264 core 157 r2938 2b00a84 TnP@MTeam Mod
Encoding settings : cabac=1 / ref=5 / deblock=1:-1:-1 / analyse=0x3:0x133 / me=umh / subme=10 / psy=1 / psy_rd=1.05:0.00 / mixed_ref=1 / me_range=24 / chroma_me=1 / trellis=2 / 8x8dct=1 / cqm=0 / deadzone=21,11 / fast_pskip=0 / chroma_qp_offset=-2 / threads=12 / lookahead_threads=2 / sliced_threads=0 / nr=0 / decimate=0 / interlaced=0 / bluray_compat=0 / constrained_intra=0 / bframes=8 / b_pyramid=2 / b_adapt=2 / b_bias=0 / direct=3 / weightb=1 / open_gop=0 / weightp=2 / keyint=250 / keyint_min=24 / scenecut=40 / intra_refresh=0 / rc_lookahead=250 / rc=crf / mbtree=0 / crf=16.2 / qcomp=0.60 / qpmin=0 / qpmax=69 / qpstep=4 / vbv_maxrate=62500 / vbv_bufsize=78125 / crf_max=0.0 / nal_hrd=none / filler=0 / ip_ratio=1.30 / pb_ratio=1.20 / aq=1:0.90
Language : English
Default : Yes
Forced : No
Color range : Limited
Color primaries : BT.709
Matrix coefficients : BT.709
Audio #1
ID : 2
Format : AC-3
Format/Info : Audio Coding 3
Commercial name : Dolby Digital
Codec ID : A_AC3
Duration : 1 h 56 min
Bit rate mode : Constant
Bit rate : 384 kb/s
Channel(s) : 6 channels
Channel layout : L R C LFE Ls Rs
Sampling rate : 48.0 kHz
Frame rate : 31.250 FPS (1536 SPF)
Bit depth : 16 bits
Compression mode : Lossy
Stream size : 321 MiB (2%)
Title : Dub [iTunes]
Language : Russian
Service kind : Complete Main
Default : Yes
Forced : Yes
Audio #2
ID : 3
Format : DTS
Format/Info : Digital Theater Systems
Codec ID : A_DTS
Duration : 1 h 56 min
Bit rate mode : Constant
Bit rate : 1 509 kb/s
Channel(s) : 6 channels
Channel layout : C L R Ls Rs LFE
Sampling rate : 48.0 kHz
Frame rate : 93.750 FPS (512 SPF)
Bit depth : 16 bits
Compression mode : Lossy
Stream size : 1.23 GiB (9%)
Title : Original
Language : English
Default : No
Forced : No
Text #1
ID : 4
Format : UTF-8
Codec ID : S_TEXT/UTF8
Codec ID/Info : UTF-8 Plain Text
Duration : 1 h 55 min
Bit rate : 82 b/s
Count of elements : 1467
Stream size : 70.3 KiB (0%)
Title : Full [iTunes]
Language : Russian
Default : No
Forced : No
Text #2
ID : 5
Format : UTF-8
Codec ID : S_TEXT/UTF8
Codec ID/Info : UTF-8 Plain Text
Duration : 1 h 55 min
Bit rate : 81 b/s
Count of elements : 1468
Stream size : 68.9 KiB (0%)
Title : Full [iTunes]
Language : Ukrainian
Default : No
Forced : No
Text #3
ID : 6
Format : UTF-8
Codec ID : S_TEXT/UTF8
Codec ID/Info : UTF-8 Plain Text
Duration : 1 h 55 min
Bit rate : 54 b/s
Count of elements : 1389
Stream size : 46.4 KiB (0%)
Title : Full [iTunes]
Language : English
Default : No
Forced : No
Menu
00:00:00.000 : en:Chapter 01
00:09:03.793 : en:Chapter 02
00:14:04.719 : en:Chapter 03
00:18:51.714 : en:Chapter 04
00:29:39.027 : en:Chapter 05
00:34:14.636 : en:Chapter 06
00:40:34.432 : en:Chapter 07
00:44:22.827 : en:Chapter 08
00:48:06.884 : en:Chapter 09
00:58:45.855 : en:Chapter 10
01:06:04.460 : en:Chapter 11
01:09:55.483 : en:Chapter 12
01:20:00.003 : en:Chapter 13
01:24:54.923 : en:Chapter 14
01:33:33.399 : en:Chapter 15
01:55:26.920 : en:Chapter 16

Скриншоты

            

Спахич

Создавать темы 31.Янв.2019 19:18

[Цитировать]

«Круче их музыки только их история» -Общая информация:-Год выпуска: 2018
Название: Богемская рапсодия
Оригинальное название: Bohemian Rhapsody
Страна: Великобритания, США
Жанр: Драма, биография, музыка
Продолжительность: 02:14:37
Перевод: Профессиональный (полное дублирование) [iTunes]
Субтитры: Присутствуют (Русские) [Форсированные] - отдельно
Режиссер: Брайан Сингер
В главных ролях: Рами Малек, Люси Бойнтон, Гвилим Ли, Бен Харди, Джозеф Маццелло, Майк Майерс, Эйден Гиллен, Том Холландер, Аллен Лич, Аарон МакКаскер, Эйс Бхатти, Прия Блэкберн, Дермот Мерфи, Тим Плестер, Дики Бо- -Описание:-Чествование группы Queen, их музыки и их выдающегося вокалиста Фредди Меркьюри, который бросил вызов стереотипам и победил условности, чтобы стать одним из самых любимых артистов на планете. Фильм прослеживает головокружительный путь группы к успеху благодаря их культовым песням и революционному звуку, практически распад коллектива, поскольку образ жизни Меркьюри выходит из-под контроля, и их триумфальное воссоединение накануне концерта Live Aid, ставшим одним из величайших выступлений в истории рок-музыки.-Техническая информация:-Качество: HDRip
Формат: AVI
Видео: 720x304 (2.37:1), 23.976 fps, XviD build 73 ~1929 kbps avg, 0.37 bit/pixel
Аудио: Русский: 48 kHz, AC3 Dolby Digital, 3/2 (L,C,R,l,r) + LFE ch, ~384 kbps-СЭМПЛ

MediaInfo

Общее
Полное имя                               : D:\Видео\Bohemian.Rhapsody.2018.HDRip.2.18Gb.MegaPeer\Bohemian.Rhapsody.2018.HDRip.2.18Gb.MegaPeer.avi
Формат                                   : AVI
Формат/Информация                        : Audio Video Interleave
Профиль формата                          : OpenDML
Размер файла                             : 2,18 Гбайт
Продолжительность                        : 2 ч. 14 м.
Общий поток                              : 2321 Кбит/сек
Программа кодирования                    : VirtualDubMod 1.5.10.3 | www.virtualdub-fr.org || (build 2550/release)
Библиотека кодирования                   : VirtualDubMod build 2550/release
Видео
Идентификатор                            : 0
Формат                                   : MPEG-4 Visual
Профиль формата                          : Advanced Simple@L5
Настройки формата                        : BVOP1 / Custom Matrix
Параметр BVOP формата                    : 1
Параметр QPel формата                    : Нет
Параметр GMC формата                     : Без точки перехода
Параметр матрицы формата                 : Выборочная
Идентификатор кодека                     : XVID
Идентификатор кодека/Подсказка           : XviD
Продолжительность                        : 2 ч. 14 м.
Битрейт                                  : 1925 Кбит/сек
Ширина                                   : 720 пикселей
Высота                                   : 304 пикселя
Соотношение сторон                       : 2,35:1
Частота кадров                           : 23,976 (24000/1001) кадра/сек
Цветовое пространство                    : YUV
Субдискретизация насыщенности            : 4:2:0
Битовая глубина                          : 8 бит
Тип развёртки                            : Прогрессивная
Метод сжатия                             : С потерями
Бит/(Пиксели*Кадры)                      : 0.367
Размер потока                            : 1,81 Гбайт (83%)
Библиотека кодирования                   : XviD 73
Аудио
Идентификатор                            : 1
Формат                                   : AC-3
Формат/Информация                        : Audio Coding 3
Идентификатор кодека                     : 2000
Продолжительность                        : 2 ч. 14 м.
Вид битрейта                             : Постоянный
Битрейт                                  : 384 Кбит/сек
Каналы                                   : 6 каналов
Расположение каналов                     : Front: L C R, Side: L R, LFE
Частота                                  : 48,0 КГц
Частота кадров                           : 31,250 кадров/сек (1536 SPF)
Битовая глубина                          : 16 бит
Метод сжатия                             : С потерями
Размер потока                            : 370 Мбайт (17%)
Выравнивание                             : Разделение по промежуткам
Продолжительность промежутка             : 42  мс. (1,00 видеокадр)
Время предзагрузки промежутка            : 500  мс.
ServiceKind/String                       : Complete Main

Скриншоты

 

Текущее время: 16-Июн 03:30

Часовой пояс: UTC + 3