Результатов поиска: 121

Автор Сообщение

Phantasm

Создавать темы 03.Сен.2018 23:55

[Цитировать]

мульт шикарный!

Zobaken

Создавать темы 03.Сен.2018 11:34

[Цитировать]

- - Общая информация:-Название: Космический рубеж
Оригинальное название: Final Space
Страна: США
Год: 2018
Жанр: приключение, комедия, фантастика
Режиссер: Олэн Роджерс
Роли озвучивали: Митчелл Дэвис, Коути Гэлловэй, Олэн Роджерс, Джейк Сидвелл
Продолжительность серии: 22 мин.
Перевод: профессиональный (двухголосый, закадровый), субтитры
Субтитры: русские/английские (вшитые)- -Описание:-Астронавт по имени Гэри и его уничтожающий планеты приятель, называемый им Мункейк, приступают к путешествиям по космосу, чтобы разгадать тайну того, где вселенная заканчивается и действительно ли она существует.-Особенности релиза:-    » Формат: MKV | WEB-DL, 1080p
    » Видео: AVC, 1920x1080 (16:9), 23.976 fps, ~11.8 mb/s
    » Аудио:
    » Аудио#1: Русский, 48 kHz, AC-3, 6ch, ~384 kbps [любительский (двухголосый, закадровый)] [NewStation]
    » Аудио#2: Русский, 48 kHz, AC-3, 6ch, ~640 kbps [профессиональный (двухголосый, закадровый)] [Кубик в Кубе] [присутствуют рекламные вставки]
    » Аудио#3: Английский, 48 kHz, EAC-3, 6ch, ~640 kbps
    » Субтитры:
    » Субтитры#1: Русские, вшитые
    » Субтитры#2: Английские, вшитые-MediaInfo:-

MediaInfo

General
Unique ID                                : 102870298148821347296604532874358944360 (0x4D64194849DEA184E4B096B682B5F268)
Complete name                            : G:\Мультфильмы\Final Space\Final.Space.S01E01.WEB-DL.1080p.NS-KvK.mkv
Format                                   : Matroska
Format version                           : Version 4 / Version 2
File size                                : 2.01 GiB
Duration                                 : 21 min 18 s
Overall bit rate mode                    : Variable
Overall bit rate                         : 13.5 Mb/s
Encoded date                             : UTC 2018-09-03 06:51:46
Writing application                      : mkvmerge v26.0.0 ('In The Game') 64-bit
Writing library                          : libebml v1.3.6 + libmatroska v1.4.9
Video
ID                                       : 1
Format                                   : AVC
Format/Info                              : Advanced Video Codec
Format profile                           : High@L4
Format settings                          : CABAC / 4 Ref Frames
Format settings, CABAC                   : Yes
Format settings, ReFrames                : 4 frames
Codec ID                                 : V_MPEG4/ISO/AVC
Duration                                 : 21 min 18 s
Bit rate mode                            : Variable
Bit rate                                 : 11.8 Mb/s
Maximum bit rate                         : 15.0 Mb/s
Width                                    : 1 920 pixels
Height                                   : 1 080 pixels
Display aspect ratio                     : 16:9
Frame rate mode                          : Constant
Frame rate                               : 23.976 (24000/1001) FPS
Color space                              : YUV
Chroma subsampling                       : 4:2:0
Bit depth                                : 8 bits
Scan type                                : Progressive
Bits/(Pixel*Frame)                       : 0.238
Stream size                              : 1.76 GiB (88%)
Language                                 : English
Default                                  : Yes
Forced                                   : No
Color range                              : Limited
Color primaries                          : BT.709
Transfer characteristics                 : BT.709
Matrix coefficients                      : BT.709
Audio #1
ID                                       : 2
Format                                   : AC-3
Format/Info                              : Audio Coding 3
Codec ID                                 : A_AC3
Duration                                 : 21 min 18 s
Bit rate mode                            : Constant
Bit rate                                 : 384 kb/s
Channel(s)                               : 6 channels
Channel positions                        : Front: L C R, Side: L R, LFE
Sampling rate                            : 48.0 kHz
Frame rate                               : 31.250 FPS (1536 SPF)
Bit depth                                : 16 bits
Compression mode                         : Lossy
Stream size                              : 58.5 MiB (3%)
Title                                    : NewStation
Language                                 : Russian
Service kind                             : Complete Main
Default                                  : Yes
Forced                                   : No
Audio #2
ID                                       : 3
Format                                   : AC-3
Format/Info                              : Audio Coding 3
Codec ID                                 : A_AC3
Duration                                 : 21 min 18 s
Bit rate mode                            : Constant
Bit rate                                 : 640 kb/s
Channel(s)                               : 6 channels
Channel positions                        : Front: L C R, Side: L R, LFE
Sampling rate                            : 48.0 kHz
Frame rate                               : 31.250 FPS (1536 SPF)
Bit depth                                : 16 bits
Compression mode                         : Lossy
Stream size                              : 97.5 MiB (5%)
Title                                    : KvK
Language                                 : Russian
Service kind                             : Complete Main
Default                                  : No
Forced                                   : No
Audio #3
ID                                       : 4
Format                                   : E-AC-3
Format/Info                              : Enhanced Audio Coding 3
Codec ID                                 : A_EAC3
Duration                                 : 21 min 18 s
Bit rate mode                            : Constant
Bit rate                                 : 640 kb/s
Channel(s)                               : 6 channels
Channel positions                        : Front: L C R, Side: L R, LFE
Sampling rate                            : 48.0 kHz
Frame rate                               : 187.500 FPS (256 SPF)
Compression mode                         : Lossy
Stream size                              : 97.5 MiB (5%)
Title                                    : Original
Language                                 : English
Service kind                             : Complete Main
Default                                  : No
Forced                                   : No
Text #1
ID                                       : 5
Format                                   : UTF-8
Codec ID                                 : S_TEXT/UTF8
Codec ID/Info                            : UTF-8 Plain Text
Duration                                 : 20 min 59 s
Bit rate                                 : 141 b/s
Count of elements                        : 393
Stream size                              : 21.8 KiB (0%)
Title                                    : Женя Спицын
Language                                 : Russian
Default                                  : No
Forced                                   : No
Text #2
ID                                       : 6
Format                                   : UTF-8
Codec ID                                 : S_TEXT/UTF8
Codec ID/Info                            : UTF-8 Plain Text
Duration                                 : 21 min 9 s
Bit rate                                 : 84 b/s
Count of elements                        : 475
Stream size                              : 13.2 KiB (0%)
Language                                 : English
Default                                  : No
Forced                                   : No
-Скриншоты:-

Скриншоты

Zobaken

Создавать темы 01.Сен.2018 18:57

[Цитировать]

- - Общая информация:-Название: Гравити Фолз
Оригинальное название: Gravity Falls
Страна: США
Год: 2012-2015
Жанр: мистика, приключения
Режиссер: Алекс Хирш
Роли озвучивали: Джо Питт, Джон Ошима, Аарон Спрингер
Продолжительность серии: 21 мин.
Перевод: профессиональный (полное дублирование), субтитры
Субтитры: русские/английские (внешние)- -Описание:-Брата и сестру Диппера и Мэйбл Пайнс трудно чем-то удивить, ведь они много лет росли в большом городе и многое повидали. Но однажды на летние каникулы родители оправляют школьников к дальнему родственнику в городок Гравити Фолз.-Особенности релиза:-    » Формат: MKV | WEB-DL, 1080p
    » Видео: MPEG4 Video (H264), 1916x1076, 23.976fps, ~5000 Kbps
    » Аудио:
    » Аудио#1: Русский, Dolby AC3, 48.0 kHz, 2 ch, 192 kbps [профессиональный, дублированный] [Студия "Кириллица"]
    » Аудио#2: Английский, AAC, 48.0 kHz, 2 ch, 160 Kbps
    » Субтитры:
    » Субтитры#1: Русские, внешние
    » Субтитры#2: Английские, внешние-MediaInfo:-

MediaInfo

General
Unique ID                                : 254877210904242198596231640322325780699 (0xBFBF90B506AA495BAD7721F12E7298DB)
Complete name                            : G:\Мультфильмы\Gravity Falls\Season 2\Gravity.Falls.S02E01.Scary-oke.1080p.WEB-DL.AAC2.0.H.264-iT00NZ.mkv
Format                                   : Matroska
Format version                           : Version 4 / Version 2
File size                                : 891 MiB
Duration                                 : 22 min 36 s
Overall bit rate                         : 5 505 kb/s
Encoded date                             : UTC 2015-12-09 13:42:55
Writing application                      : mkvmerge v8.6.1 ('Flying') 64bit
Writing library                          : libebml v1.3.3 + libmatroska v1.4.4
Video
ID                                       : 2
Format                                   : AVC
Format/Info                              : Advanced Video Codec
Format profile                           : High@L4
Format settings                          : CABAC / 4 Ref Frames
Format settings, CABAC                   : Yes
Format settings, ReFrames                : 4 frames
Codec ID                                 : V_MPEG4/ISO/AVC
Duration                                 : 22 min 36 s
Bit rate                                 : 5 156 kb/s
Width                                    : 1 920 pixels
Height                                   : 1 080 pixels
Display aspect ratio                     : 16:9
Frame rate mode                          : Constant
Frame rate                               : 23.976 (24000/1001) FPS
Color space                              : YUV
Chroma subsampling                       : 4:2:0
Bit depth                                : 8 bits
Scan type                                : Progressive
Bits/(Pixel*Frame)                       : 0.104
Stream size                              : 834 MiB (94%)
Language                                 : Russian
Default                                  : Yes
Forced                                   : No
Color range                              : Limited
Color primaries                          : BT.709
Transfer characteristics                 : BT.709
Matrix coefficients                      : BT.709
Audio #1
ID                                       : 1
Format                                   : AC-3
Format/Info                              : Audio Coding 3
Codec ID                                 : A_AC3
Duration                                 : 22 min 36 s
Bit rate mode                            : Constant
Bit rate                                 : 192 kb/s
Channel(s)                               : 2 channels
Channel positions                        : Front: L R
Sampling rate                            : 48.0 kHz
Frame rate                               : 31.250 FPS (1536 SPF)
Bit depth                                : 16 bits
Compression mode                         : Lossy
Stream size                              : 31.1 MiB (3%)
Language                                 : Russian
Service kind                             : Complete Main
Default                                  : Yes
Forced                                   : Yes
Audio #2
ID                                       : 3
Format                                   : AAC
Format/Info                              : Advanced Audio Codec
Format profile                           : LC
Codec ID                                 : A_AAC-2
Duration                                 : 22 min 36 s
Bit rate                                 : 154 kb/s
Channel(s)                               : 2 channels
Channel positions                        : Front: L R
Sampling rate                            : 48.0 kHz
Frame rate                               : 46.875 FPS (1024 SPF)
Compression mode                         : Lossy
Stream size                              : 25.0 MiB (3%)
Language                                 : English
Default                                  : No
Forced                                   : No
-Скриншоты:-

Скриншоты

Zobaken

Создавать темы 01.Сен.2018 18:24

[Цитировать]

-Юные титаны / Teen Titans- Общая информация:-Название: Юные титаны
Оригинальное название: Teen Titans
Страна: США
Год: 2003-2006
Жанр: фантастика, приключения
Режиссер: Глен Мураками
Роли озвучивали: Хинден Уолш, Скотт Менвиль, Грег Сайпс, Хари Пэйтон, Тара Стронг, Ди Брэдли Бейкер, Рон Перлман, Кевин Майкл Ричардсон, Эшли Джонсон, Лорен Том
Продолжительность серии: 21 мин.
Перевод: субтитры
Субтитры: русские- -Описание:-«Юные Титаны» – мультсериал о команде супергероев. Персонажи, чьи приключения были описаны в комиксах издательства DC Comics, объединили свои усилия ради защиты города от нападений всякого рода злодеев. Красотка-инопланетянка Старфаер. Оптимистичный Бистбой, способный превращаться в любое животное. Наделенный способностью трансформироваться в автомобиль получеловек Киборг. Загадочная Рэйвен, наполовину человек, наполовину – демон. И, конечно, лидер команды Робин, титан, которому часто приходится подавлять свои эмоции и усмирять вспыльчивость ради успеха общего дела. Эти пятеро героев мультсериала «Юные Титаны» обустроили для себя башню в виде буквы «Т» и следят, чтобы в городе всегда царили порядок и закон.-Особенности релиза:-    » Формат: MKV | WEB-DL, 1080p
    » Видео: AVC, 1920x1080, 23.976 fps, ~5300 kbps
    » Аудио: Английский, AAC, 44,1 КГц, 2ch, 156 kbps
    » Субтитры: русские [Mr. Anonim]-MediaInfo:-

MediaInfo

General
Unique ID                                : 229995654776321199764265665614799016552 (0xAD078D46C7AC0E29854CC6A354F19268)
Complete name                            : G:\Мультфильмы\Teen Titans\Season 1\Teen.Titans.S01E01.Divide.And.Conquer.1080p.GP.WEB-DL.AAC2.0.H.264-DAWN.mkv
Format                                   : Matroska
Format version                           : Version 4 / Version 2
File size                                : 862 MiB
Duration                                 : 21 min 17 s
Overall bit rate                         : 5 662 kb/s
Encoded date                             : UTC 2017-07-19 07:18:37
Writing application                      : mkvmerge v8.3.0 ('Over the Horizon') 64bit
Writing library                          : libebml v1.3.1 + libmatroska v1.4.2
Video
ID                                       : 1
Format                                   : AVC
Format/Info                              : Advanced Video Codec
Format profile                           : High@L4
Format settings                          : CABAC / 2 Ref Frames
Format settings, CABAC                   : Yes
Format settings, ReFrames                : 2 frames
Codec ID                                 : V_MPEG4/ISO/AVC
Duration                                 : 21 min 17 s
Bit rate                                 : 5 404 kb/s
Width                                    : 1 920 pixels
Height                                   : 1 080 pixels
Display aspect ratio                     : 16:9
Frame rate mode                          : Constant
Frame rate                               : 23.976 (24000/1001) FPS
Color space                              : YUV
Chroma subsampling                       : 4:2:0
Bit depth                                : 8 bits
Scan type                                : Progressive
Bits/(Pixel*Frame)                       : 0.109
Stream size                              : 823 MiB (95%)
Language                                 : English
Default                                  : Yes
Forced                                   : No
Color range                              : Limited
Color primaries                          : BT.709
Transfer characteristics                 : BT.709
Matrix coefficients                      : BT.709
Audio
ID                                       : 2
Format                                   : AAC
Format/Info                              : Advanced Audio Codec
Format profile                           : LC
Codec ID                                 : A_AAC-2
Duration                                 : 21 min 17 s
Bit rate                                 : 256 kb/s
Channel(s)                               : 2 channels
Channel positions                        : Front: L R
Sampling rate                            : 44.1 kHz
Frame rate                               : 43.066 FPS (1024 SPF)
Compression mode                         : Lossy
Stream size                              : 39.0 MiB (5%)
Language                                 : English
Default                                  : Yes
Forced                                   : No
-Скриншоты:-

Скриншоты

xCooLx

Создавать темы 28.Авг.2018 13:51

[Цитировать]

У меня в сети только 3 штуки пока sad так что забираю однозначно bububu читал что Мэтт Гроунинг соберался делать новый мульт.

Krinkels

Создавать темы 28.Авг.2018 11:29

[Цитировать]

276126в заголовке лишние пробелы и не там
Дурная привычка :)

Рассел

Создавать темы 28.Авг.2018 10:11

[Цитировать]

Хороший и интересный мультфильм, порция свежего воздуха в упаковку симпсонов, футурамы и подобных им.

Mesivo

Создавать темы 28.Авг.2018 05:18

[Цитировать]

в заголовке лишние пробелы и не там

Sergey3695

Создавать темы 27.Авг.2018 23:38

[Цитировать]

Какое-то разочарование ph34r

Krinkels

Создавать темы 27.Авг.2018 21:48

[Цитировать]

«Разочарование / Disenchantment»- Общая информация:-Название (рус.): Разочарование
Оригинальное название: Disenchantment
Страна: США
Год выпуска: 17 августа 2018
Жанр: Мультфильм, фэнтези, комедия, приключения
Продолжительность: 00:35:16
Режиссер: Мэтт Гроунинг
Роли озвучивали: Эрик Андре, Мэтт Берри, Джон Ди Маджио, Нат Факсон, Ноэль Филдинг, Дэвид Херман, Эбби Джейкобсон, Морис ЛаМарш, Тресс МакНилл, Билли Уэст
Перевод: Профессиональный (многоголосый закадровый) - AlexFilm
Субтитры: Да
-Описание:-Действие разворачивается в Средневековье в королевстве Дримландия, где живёт юная принцесса-алкоголичка Бин. Отказавшись выходить замуж, Бин отправляется в путешествие по стране в компании эльфа и демона. По дороге трио встретит множество фантастических тварей и дураков людского происхождения.-Техническая информация:-    » Качество: WEB-DL 1080p
    » Контейнер: MKV
    » Видео: MPEG-4 AVC, 1920x1080 (16:9), 23.976 fps, 5620 Kbps, 0.113 bits/pixel
    » Аудио #1: Русский: 48 kHz, AC3, 6 ch, 384 kbps
    » Аудио #2: Английский: 48 kHz, AC3, 6 ch, 384 kbps
    » Субтитры: Русские, английские, немецкие, греческие, испанские, французские, итальянские, голландские, португальские

Список серий

01. Принцесса, Эльф и Демон заходят в бар
02. По ком хрюкает свинка
03. Принцесса тьмы
04. Резня в замке
05. Быстрее, принцесса! Убей! Убей!
06. Болота и последствия
07. Любовь - это нежное буйство
08. Пределы бессмертия
09. Будь верной Эльфу
10. Падение Мечтандии

Medianfo

Общее
Формат : Matroska
Версия формата : Version 4 / Version 2
Размер файла : 1,61 Гбайт
Продолжительность : 35 м. 16 с.
Режим общего битрейта : Переменный
Общий поток : 6548 Кбит/сек
Название фильма : A Princess, an Elf, and a Demon Walk Into a Bar
Дата кодирования : UTC 2018-08-19 08:00:59
Программа кодирования : mkvmerge v25.0.0 ('Prog Noir') 64-bit
Библиотека кодирования : libebml v1.3.6 + libmatroska v1.4.9
Видео
Идентификатор : 1
Формат : AVC
Формат/Информация : Advanced Video Codec
Профиль формата : Main@L4
Настройки формата : CABAC / 3 Ref Frames
Параметр CABAC формата : Да
Параметр RefFrames формата : 3 кадра
Идентификатор кодека : V_MPEG4/ISO/AVC
Продолжительность : 35 м. 16 с.
Вид битрейта : Переменный
Битрейт : 5620 Кбит/сек
Максимальный битрейт : 8430 Кбит/сек
Ширина : 1920 пикселей
Высота : 1080 пикселей
Соотношение сторон : 16:9
Режим частоты кадров : Постоянный
Частота кадров : 23,976 (24000/1001) кадра/сек
Цветовое пространство : YUV
Субдискретизация насыщенности : 4:2:0
Битовая глубина : 8 бит
Тип развёртки : Прогрессивная
Бит/(Пиксели*Кадры) : 0.113
Размер потока : 1,36 Гбайт (84%)
Библиотека кодирования : x264 core 148 r2715 7e75228
Настройки программы : cabac=1 / ref=3 / deblock=1:0:0 / analyse=0x1:0x111 / me=umh / subme=10 / psy=1 / psy_rd=1.00:0.00 / mixed_ref=1 / me_range=24 / chroma_me=1 / trellis=2 / 8x8dct=0 / cqm=0 / deadzone=21,11 / fast_pskip=1 / chroma_qp_offset=-2 / threads=8 / lookahead_threads=1 / sliced_threads=0 / nr=0 / decimate=1 / interlaced=0 / bluray_compat=0 / stitchable=1 / constrained_intra=0 / bframes=2 / b_pyramid=0 / b_adapt=2 / b_bias=0 / direct=3 / weightb=1 / open_gop=0 / weightp=2 / keyint=48 / keyint_min=25 / scenecut=0 / intra_refresh=0 / rc_lookahead=48 / rc=2pass / mbtree=1 / bitrate=5620 / ratetol=1.0 / qcomp=0.50 / qpmin=6 / qpmax=51 / qpstep=4 / cplxblur=20.0 / qblur=0.5 / vbv_maxrate=8430 / vbv_bufsize=11240 / nal_hrd=vbr / filler=0 / ip_ratio=1.40 / aq=1:1.00
Язык : English
Default : Да
Forced : Нет
Аудио #1
Идентификатор : 2
Формат : AC-3
Формат/Информация : Audio Coding 3
Идентификатор кодека : A_AC3
Продолжительность : 35 м. 16 с.
Вид битрейта : Постоянный
Битрейт : 384 Кбит/сек
Каналы : 6 каналов
Расположение каналов : Front: L C R, Side: L R, LFE
Частота : 48,0 КГц
Частота кадров : 31,250 кадров/сек (1536 SPF)
Битовая глубина : 16 бит
Метод сжатия : С потерями
Размер потока : 96,9 Мбайт (6%)
Язык : Russian
ServiceKind/String : Complete Main
Default : Да
Forced : Нет
Аудио #2
Идентификатор : 3
Формат : AC-3
Формат/Информация : Audio Coding 3
Идентификатор кодека : A_AC3
Продолжительность : 35 м. 16 с.
Вид битрейта : Постоянный
Битрейт : 640 Кбит/сек
Каналы : 6 каналов
Расположение каналов : Front: L C R, Side: L R, LFE
Частота : 48,0 КГц
Частота кадров : 31,250 кадров/сек (1536 SPF)
Битовая глубина : 16 бит
Метод сжатия : С потерями
Размер потока : 161 Мбайт (10%)
Язык : English
ServiceKind/String : Complete Main
Default : Нет
Forced : Нет
Текст #1
Идентификатор : 4
Формат : UTF-8
Идентификатор кодека : S_TEXT/UTF8
Идентификатор кодека/Информация : UTF-8 Plain Text
Продолжительность : 35 м. 2 с.
Битрейт : 95 бит/сек
ElementCount : 415
Размер потока : 24,4 Кбайт (0%)
Язык : Russian
Default : Нет
Forced : Нет
Текст #2
Идентификатор : 5
Формат : UTF-8
Идентификатор кодека : S_TEXT/UTF8
Идентификатор кодека/Информация : UTF-8 Plain Text
Продолжительность : 35 м. 3 с.
Битрейт : 67 бит/сек
ElementCount : 534
Размер потока : 17,4 Кбайт (0%)
Заголовок : SDH
Язык : English
Default : Нет
Forced : Нет
Текст #3
Идентификатор : 6
Формат : UTF-8
Идентификатор кодека : S_TEXT/UTF8
Идентификатор кодека/Информация : UTF-8 Plain Text
Продолжительность : 35 м. 2 с.
Битрейт : 60 бит/сек
ElementCount : 414
Размер потока : 15,5 Кбайт (0%)
Язык : German
Default : Нет
Forced : Нет
Текст #4
Идентификатор : 7
Формат : UTF-8
Идентификатор кодека : S_TEXT/UTF8
Идентификатор кодека/Информация : UTF-8 Plain Text
Продолжительность : 35 м. 2 с.
Битрейт : 103 бит/сек
ElementCount : 414
Размер потока : 26,5 Кбайт (0%)
Язык : Greek
Default : Нет
Forced : Нет
Текст #5
Идентификатор : 8
Формат : UTF-8
Идентификатор кодека : S_TEXT/UTF8
Идентификатор кодека/Информация : UTF-8 Plain Text
Продолжительность : 35 м. 2 с.
Битрейт : 58 бит/сек
ElementCount : 412
Размер потока : 15,1 Кбайт (0%)
Язык : Spanish
Default : Нет
Forced : Нет
Текст #6
Идентификатор : 9
Формат : UTF-8
Идентификатор кодека : S_TEXT/UTF8
Идентификатор кодека/Информация : UTF-8 Plain Text
Продолжительность : 35 м. 2 с.
Битрейт : 58 бит/сек
ElementCount : 410
Размер потока : 15,0 Кбайт (0%)
Язык : French
Default : Нет
Forced : Нет
Текст #7
Идентификатор : 10
Формат : UTF-8
Идентификатор кодека : S_TEXT/UTF8
Идентификатор кодека/Информация : UTF-8 Plain Text
Продолжительность : 35 м. 2 с.
Битрейт : 58 бит/сек
ElementCount : 409
Размер потока : 15,1 Кбайт (0%)
Язык : Italian
Default : Нет
Forced : Нет
Текст #8
Идентификатор : 11
Формат : UTF-8
Идентификатор кодека : S_TEXT/UTF8
Идентификатор кодека/Информация : UTF-8 Plain Text
Продолжительность : 35 м. 2 с.
Битрейт : 56 бит/сек
ElementCount : 405
Размер потока : 14,5 Кбайт (0%)
Язык : Dutch
Default : Нет
Forced : Нет
Текст #9
Идентификатор : 12
Формат : UTF-8
Идентификатор кодека : S_TEXT/UTF8
Идентификатор кодека/Информация : UTF-8 Plain Text
Продолжительность : 35 м. 2 с.
Битрейт : 61 бит/сек
ElementCount : 397
Размер потока : 15,8 Кбайт (0%)
Язык : Portuguese
Default : Нет
Forced : Нет

Скриншоты

Раздаю с 8.00 по 00.00 по МСК

Zobaken

Создавать темы 15.Дек.2017 12:48

[Цитировать]

-Герои Энвелла- Общая информация:-Название: Герои Энвелла
Страна: Россия
Студия: анимационная студия "Паровоз"
Жанр: фантастика, комедия, приключения
Год: 2017
Режиссер: Антон Ланшаков
Роли озвучивали: Евгений Михеев, Андрей Шишков, Виталий Щербина, Артем Кошман, Борис Репетур, Владимир Антоник- -Описание:-Санкт-Петербург, наше время. Четверо друзей - Арт, Кира, Фил и Вик — самые заядлые геймеры. Они находят в школе необычный ноутбук, который оказывается порталом в мир игры «Герои Энвелла», но только, в отличие от компьютерной, опасности и приключения этой игры реальны. Мир игры представляет собой смесь Средневековья, стимпанка и технологий далекого будущего. Никогда не угадаешь, что ждет игроков «Героев Энвелла». Как и антураж, логика игры непредсказуема. Начавшийся квест здесь легко превратится в гонку, шутер или логическую задачку. Но легко или скучно точно не будет.-Особенности релиза:-    » Формат: MKV | WEB-DLRip 720p
    » Продолжительность серии: ~ 11 мин.
    » Видео: AVC/H.264, 1280x720, ~2000 kbps
    » Аудио: AС3, 2 ch, 192 kbps
    » Субтитры: отсутствуют-Список серий:-

Список серий

01. Новая игра
02. Бойлерная
03. Ферма
04. Замок
05. Жилой квартал
06. Магазин
07. Ворота из города
08. Поляна в лесу
09. Ущелье
10. Неизвестная локация
...
-MediaInfo:-

MediaInfo

Общее
Уникальный идентификатор                 : 292635462433826001065843678007944944853 (0xDC278A3CB99EB5DF415B249C61621CD5)
Полное имя                               : D:\Мультфильмы\Герои Энвелла\01. Новая игра.mkv
Формат                                   : Matroska
Версия формата                           : Version 4 / Version 2
Размер файла                             : 160 Мбайт
Продолжительность                        : 11 м. 0 с.
Общий поток                              : 2029 Кбит/сек
Программа кодирования                    : Lavf57.25.100
Библиотека кодирования                   : Lavf57.25.100
Видео
Идентификатор                            : 1
Формат                                   : AVC
Формат/Информация                        : Advanced Video Codec
Профиль формата                          : High@L3.1
Настройки формата                        : CABAC / 4 Ref Frames
Параметр CABAC формата                   : Да
Параметр RefFrames формата               : 4 кадра
Идентификатор кодека                     : V_MPEG4/ISO/AVC
Продолжительность                        : 11 м. 0 с.
Битрейт                                  : 1796 Кбит/сек
Ширина                                   : 1280 пикселей
Высота                                   : 720 пикселей
Соотношение сторон                       : 16:9
Режим частоты кадров                     : Постоянный
Частота кадров                           : 25,000 кадров/сек
Цветовое пространство                    : YUV
Субдискретизация насыщенности            : 4:2:0
Битовая глубина                          : 8 бит
Тип развёртки                            : Прогрессивная
Бит/(Пиксели*Кадры)                      : 0.078
Размер потока                            : 141 Мбайт (89%)
Библиотека кодирования                   : x264 core 148 r2643 5c65704
Настройки программы                      : cabac=1 / ref=3 / deblock=1:0:0 / analyse=0x3:0x133 / me=hex / subme=7 / psy=1 / psy_rd=1.00:0.00 / mixed_ref=1 / me_range=16 / chroma_me=1 / trellis=1 / 8x8dct=1 / cqm=0 / deadzone=21,11 / fast_pskip=1 / chroma_qp_offset=-2 / threads=3 / lookahead_threads=1 / sliced_threads=0 / nr=0 / decimate=1 / interlaced=0 / bluray_compat=0 / constrained_intra=0 / bframes=3 / b_pyramid=2 / b_adapt=1 / b_bias=0 / direct=1 / weightb=1 / open_gop=0 / weightp=2 / keyint=250 / keyint_min=25 / scenecut=40 / intra_refresh=0 / rc_lookahead=40 / rc=crf / mbtree=1 / crf=20.0 / qcomp=0.60 / qpmin=10 / qpmax=51 / qpstep=4 / ip_ratio=1.40 / aq=1:1.00
Default                                  : Да
Forced                                   : Нет
Аудио
Идентификатор                            : 2
Формат                                   : AC-3
Формат/Информация                        : Audio Coding 3
Параметр Endianness формата              : Big
Идентификатор кодека                     : A_AC3
Продолжительность                        : 10 м. 59 с.
Вид битрейта                             : Постоянный
Битрейт                                  : 192 Кбит/сек
Каналы                                   : 2 канала
Расположение каналов                     : Front: L R
Частота                                  : 44,1 КГц
Частота кадров                           : 28,711 кадров/сек (1536 SPF)
Битовая глубина                          : 16 бит
Метод сжатия                             : С потерями
Задержка видео                           : -40 мс.
Размер потока                            : 15,1 Мбайт (9%)
ServiceKind/String                       : Complete Main
Default                                  : Да
Forced                                   : Нет
-Скриншоты:-

Скриншоты

Zobaken

Создавать темы 25.Окт.2017 14:55

[Цитировать]

240140Ааа.. Чу, какой я не осмотрительный. Аж в рутрэкер полез.... rofl
Там вместо кинотеатрального звука озвучка от (Dub line)
Сабы - те же
А вот видео - FullHD
Кстати: длину пофикси - а то подумают, что серия, а не полнометражка
В фуллхд я всё по поняшкам (сериал, полнометражки) планирую перезалить ближе к Новому Году, когда ещё один хард куплю - сейчас банально места не хватает. dntknw
Продолжительность пофиксил. hi

raxemus

Создавать темы 24.Окт.2017 23:07

[Цитировать]

Ааа.. Чу, какой я не осмотрительный. Аж в рутрэкер полез.... rofl
Там вместо кинотеатрального звука озвучка от (Dub line)
Сабы - те же
А вот видео - FullHD
Кстати: длину пофикси - а то подумают, что серия, а не полнометражка

Zobaken

Создавать темы 23.Окт.2017 10:42

[Цитировать]

239930Нашёл "My Little Pony: The Movie"
Кому отдать?
Так я уж неделю как выложил: Мой маленький пони в кино / My Little Pony: The Movie (Джейсон Тиссен) [2017, мюзикл, фэнтези, комедия, приключения, семейный, HDRip 720p] VO + DVO + DUB + Subs sarcastic

raxemus

Создавать темы 23.Окт.2017 02:54

[Цитировать]

Нашёл "My Little Pony: The Movie"
Кому отдать?
 

Текущее время: 20-Авг 16:05

Часовой пояс: UTC + 3