Результатов поиска: 14

Автор Сообщение

scarface

Создавать темы 17.Фев.2019 21:57

[Цитировать]

Такое чувство, что кроме Петрова в России актёров не осталось...

Ruff

Создавать темы 17.Фев.2019 16:36

[Цитировать]

Спахич, что не понравилось?

Спахич

Создавать темы 17.Фев.2019 15:14

[Цитировать]

ну фиг знает, мне как то отвратно было смотреть данный сериал

Ruff

Создавать темы 13.Фев.2019 21:27

[Цитировать]

Sergey3695, очень даже, мне понравилось smile3

Sergey3695

Создавать темы 13.Фев.2019 21:20

[Цитировать]

Это смотрибельно? я просто увидел тнт и мне прям поплохело.

Ruff

Создавать темы 13.Фев.2019 21:05

[Цитировать]

Звоните ДиКаприо!-- Год выпуска: 2018
Производство: Good Story Media
Жанр: комедия, драма
Продолжительность: ~00:50:00 серия
Режиссёр: Жора Крыжовников
В ролях: Александр Петров, Андрей Бурковский, Юлия Александрова, Юлия Хлынина, Александра Ревенко, Антон Васильев, Анна Невская, Яна Кошкина, Игорь Миркурбанов, Наталья Потапова
Описание: История об отношениях и судьбах двух братьев. Егор Румянцев — звезда хитового сериала про врачей. Он слетает с катушек от успеха: срывает съемки, путается в любовных связях, всем врет. Румянцев чувствует себя неуязвимым и живет для себя, ни во что не ставя чувства других людей. Но в один миг его мир переворачивается. Он узнает, что у него ВИЧ. Полная его противоположность — брат Лев. Он работает на кабельном телеканале «Муравей-ТВ», где ведет никому не нужную программу о полезных поделках. В съемной квартире его ждут беременная жена и две маленькие дочки. При этом ни денег, ни перспектив их заработать. Лев завидует брату и даже не мечтает занять его место, пока однажды ему не представляется такой шанс.

Качество: WEBRip
Формат: MKV
Видео кодек: H.264
Аудио кодек: AC3
Видео: AVC, 1280x720 (16:9), 25.000 fps, 2600 Kbps (0.112 bit/pixel)
Аудио: AC3, 48000Hz stereo, 192 Kbps, 2 ch
Релиз группы:

MI

General
Complete name : Zvonite.DiKaprio.2018.WEB-DL.720p.ExKinoRay\Zvonite.DiKaprio.(01.seriya).2018.WEB-DL.720p.ExKinoRay.mkv
Format : Matroska
Format version : Version 2
File size : 971 MiB
Duration : 48 min 58 s
Overall bit rate mode : Constant
Overall bit rate : 2 771 kb/s
Movie name : Zvonite.DiKaprio.(01.seriya).2018.WEB-DL.720p.ExKinoRay
Encoded date : UTC 2018-10-19 13:41:41
Writing application : mkvmerge v5.8.0 ('No Sleep / Pillow') built on Sep 2 2012 15:37:04
Writing library : libebml v1.2.3 + libmatroska v1.3.0
Video
ID : 1
Format : AVC
Format/Info : Advanced Video Codec
Format profile : Baseline@L4
Format settings, CABAC : No
Format settings, ReFrames : 4 frames
Format settings, GOP : M=1, N=50
Codec ID : V_MPEG4/ISO/AVC
Duration : 48 min 58 s
Bit rate mode : Constant
Bit rate : 2 600 kb/s
Width : 1 280 pixels
Height : 720 pixels
Display aspect ratio : 16:9
Frame rate mode : Constant
Frame rate : 25.000 FPS
Standard : PAL
Color space : YUV
Chroma subsampling : 4:2:0
Bit depth : 8 bits
Scan type : Progressive
Bits/(Pixel*Frame) : 0.113
Stream size : 884 MiB (91%)
Language : Russian
Default : Yes
Forced : No
Color range : Limited
Color primaries : BT.709
Transfer characteristics : BT.709
Matrix coefficients : BT.709
Audio
ID : 2
Format : AC-3
Format/Info : Audio Coding 3
Mode extension : CM (complete main)
Format settings, Endianness : Big
Codec ID : A_AC3
Duration : 48 min 58 s
Bit rate mode : Constant
Bit rate : 192 kb/s
Channel(s) : 2 channels
Channel positions : Front: L R
Sampling rate : 48.0 kHz
Frame rate : 31.250 FPS (1536 spf)
Bit depth : 16 bits
Compression mode : Lossy
Stream size : 67.2 MiB (7%)
Language : Russian
Default : Yes
Forced : No

Скриншоты

olex72

Создавать темы 26.Окт.2015 17:33

[Цитировать]

impreza_wrc,
Ну вот кому то нравится лысых п*даров на авы ставить,а кому то ситкомы и И.Охлобыстин нравятся,у каждого свой вкус....

impreza_wrc

Создавать темы 12.Сен.2015 19:24

[Цитировать]

Блин, и здесь начали это выкладывать. mad

Brain Dead

Создавать темы 12.Сен.2015 00:58

[Цитировать]

Увидал морду охлобыстина - покинул трекер нахер

bot

Создавать темы 11.Мар.2015 17:54

[Цитировать]

Топик был перенесен из форума Оформление релизов (кино\мультфильмы\аниме) в форум Отечественные сериалы
Richie Tozier

Chito$

Создавать темы 11.Мар.2015 14:37

[Цитировать]

-Общая информация:-Год выпуска: 2015
Оригинальное название: Интерны
Страна: Россия
Жанр: Комедия, ситком, медицина
Продолжительность: 15 x ~ 00:26:00
Перевод: Оригинальный
Субтитры: Нет
Режиссер: Радда Новикова
В главных ролях: Иван Охлобыстин, Илья Глинников, Александр Ильин мл., Вадим Демчог, Аглая Тарасова, Юлия Назаренко, Светлана Камынина, Яна Гурьянова, Один Ланд Байрон, Татьяна Лянник, Светлана Пермякова, Азамат Мусагалиев, Александр Ляпин
-Описание:-Некоторые люди в белых халатах уверены, что сердце - всего лишь мышца, качающая кровь. Но только не герои нового сезона «Интернов». На вверенном доктору Быкову этаже кипят пушкинские страсти: интриги, секс и любовные треугольники стали нормой жизни . А перчинки всему этому добавят шаманы в палатах, жены с почасовой оплатой и всего один, но зато настоящий пистолет. Все смешалось в отделении доктора Быкова!-Техническая информация:-    » Качество: WEB-DL 720p
    » Контейнер: MKV
    » Видео: MPEG-4 AVC, ~ 4000 Кбит/с, 1280x720, 25.000 кадр/с
    » Аудио: Русский: AC3, 48.0 KHz, 2 ch., 192 Кбит/с
Раздача от:

MediaInfo

General
Format : Matroska
Format version : Version 2
File size : 566 MiB
Duration : 24mn 58s
Overall bit rate : 3 170 Kbps
Movie name : Interny-12.(01.seriya).2015.WEB-DL.(720p).MediaClub
Encoded date : UTC 2015-02-09 17:08:46
Writing application : mkvmerge v5.8.0 ('No Sleep / Pillow') built on Sep 2 2012 15:37:04
Writing library : libebml v1.2.3 + libmatroska v1.3.0
Video
ID : 1
Format : AVC
Format/Info : Advanced Video Codec
Format profile : High@L4.0
Format settings, CABAC : Yes
Format settings, ReFrames : 8 frames
Codec ID : V_MPEG4/ISO/AVC
Duration : 24mn 58s
Bit rate : 2 915 Kbps
Width : 1 280 pixels
Height : 720 pixels
Display aspect ratio : 16:9
Frame rate mode : Constant
Frame rate : 25.000 fps
Color space : YUV
Chroma subsampling : 4:2:0
Bit depth : 8 bits
Scan type : Progressive
Bits/(Pixel*Frame) : 0.126
Stream size : 520 MiB (92%)
Writing library : x264 core 136
Encoding settings : cabac=1 / ref=8 / deblock=1:-1:-1 / analyse=0x3:0x133 / me=umh / subme=9 / psy=1 / psy_rd=1.00:0.15 / mixed_ref=1 / me_range=16 / chroma_me=1 / trellis=2 / 8x8dct=1 / cqm=0 / deadzone=21,11 / fast_pskip=1 / chroma_qp_offset=-3 / threads=18 / lookahead_threads=1 / sliced_threads=0 / nr=0 / decimate=1 / interlaced=0 / bluray_compat=0 / constrained_intra=0 / bframes=3 / b_pyramid=2 / b_adapt=2 / b_bias=0 / direct=3 / weightb=1 / open_gop=0 / weightp=2 / keyint=100 / keyint_min=10 / scenecut=40 / intra_refresh=0 / rc_lookahead=60 / rc=crf / mbtree=1 / crf=17.0 / qcomp=0.60 / qpmin=0 / qpmax=69 / qpstep=4 / vbv_maxrate=3600 / vbv_bufsize=3600 / crf_max=0.0 / nal_hrd=none / ip_ratio=1.40 / aq=1:1.00
Default : Yes
Forced : Yes
Audio
ID : 2
Format : AC-3
Format/Info : Audio Coding 3
Mode extension : CM (complete main)
Format settings, Endianness : Big
Codec ID : A_AC3
Duration : 24mn 58s
Bit rate mode : Constant
Bit rate : 192 Kbps
Channel(s) : 2 channels
Channel positions : Front: L R
Sampling rate : 48.0 KHz
Bit depth : 16 bits
Compression mode : Lossy
Delay relative to video : -80ms
Stream size : 34.3 MiB (6%)
Language : Russian
Default : Yes
Forced : Yes

Скриншоты

Chito$

Создавать темы 11.Сен.2015 21:07

[Цитировать]

-Общая информация:-Год выпуска: 2015
Оригинальное название: Интерны
Страна: Россия
Жанр: Комедия, ситком, медицина
Продолжительность: 20 x ~ 00:25:00
Перевод: Оригинальный
Субтитры: Нет
Режиссер: Максим Пежемский, Дина Штурманова
В главных ролях: Иван Охлобыстин, Илья Глинников, Александр Ильин мл., Вадим Демчог, Аглая Тарасова, Юлия Назаренко, Светлана Камынина, Яна Гурьянова, Один Ланд Байрон, Татьяна Лянник, Светлана Пермякова, Азамат Мусагалиев, Александр Ляпин
-Описание:-Некоторые люди в белых халатах уверены, что сердце - всего лишь мышца, качающая кровь. Но только не герои нового сезона «Интернов». На вверенном доктору Быкову этаже кипят пушкинские страсти: интриги, секс и любовные треугольники стали нормой жизни . А перчинки всему этому добавят шаманы в палатах, жены с почасовой оплатой и всего один, но зато настоящий пистолет. Все смешалось в отделении доктора Быкова!-Техническая информация:-    » Качество: WEB-DL 720p
    » Контейнер: MKV
    » Видео: MPEG-4 AVC, ~ 3000 Кбит/с, 1280x720, 25.000 кадр/с
    » Аудио: Русский: AC3, 48.0 KHz, 2 ch., 192 Кбит/с
Релиз от:

MediaInfo

General
Format : Matroska
Format version : Version 2
File size : 592 MiB
Duration : 24mn 50s
Overall bit rate : 3 332 Kbps
Movie name : Interny-13.(01.seriya).2015.WEB-DL.(720p).MediaClub
Encoded date : UTC 2015-09-07 17:34:44
Writing application : mkvmerge v5.8.0 ('No Sleep / Pillow') built on Sep 2 2012 15:37:04
Writing library : libebml v1.2.3 + libmatroska v1.3.0
Video
ID : 1
Format : AVC
Format/Info : Advanced Video Codec
Format profile : High@L4
Format settings, CABAC : Yes
Format settings, ReFrames : 8 frames
Codec ID : V_MPEG4/ISO/AVC
Duration : 24mn 50s
Bit rate : 3 074 Kbps
Width : 1 280 pixels
Height : 720 pixels
Display aspect ratio : 16:9
Frame rate mode : Constant
Frame rate : 25.000 fps
Color space : YUV
Chroma subsampling : 4:2:0
Bit depth : 8 bits
Scan type : Progressive
Bits/(Pixel*Frame) : 0.133
Stream size : 546 MiB (92%)
Writing library : x264 core 142 r2455 021c0dc
Encoding settings : cabac=1 / ref=8 / deblock=1:-1:-1 / analyse=0x3:0x133 / me=umh / subme=9 / psy=1 / psy_rd=1.00:0.15 / mixed_ref=1 / me_range=16 / chroma_me=1 / trellis=2 / 8x8dct=1 / cqm=0 / deadzone=21,11 / fast_pskip=1 / chroma_qp_offset=-3 / threads=24 / lookahead_threads=2 / sliced_threads=0 / nr=0 / decimate=1 / interlaced=0 / bluray_compat=0 / constrained_intra=0 / bframes=3 / b_pyramid=2 / b_adapt=2 / b_bias=0 / direct=3 / weightb=1 / open_gop=0 / weightp=2 / keyint=250 / keyint_min=25 / scenecut=40 / intra_refresh=0 / rc_lookahead=60 / rc=crf / mbtree=1 / crf=17.0 / qcomp=0.60 / qpmin=0 / qpmax=69 / qpstep=4 / vbv_maxrate=3600 / vbv_bufsize=3600 / crf_max=0.0 / nal_hrd=none / filler=0 / ip_ratio=1.40 / aq=1:1.00
Default : Yes
Forced : Yes
Audio
ID : 2
Format : AC-3
Format/Info : Audio Coding 3
Mode extension : CM (complete main)
Format settings, Endianness : Big
Codec ID : A_AC3
Duration : 24mn 50s
Bit rate mode : Constant
Bit rate : 192 Kbps
Channel(s) : 2 channels
Channel positions : Front: L R
Sampling rate : 48.0 KHz
Compression mode : Lossy
Stream size : 34.1 MiB (6%)
Language : Russian
Default : Yes
Forced : Yes

Скриншоты

bot

Создавать темы 14.Апр.2015 13:09

[Цитировать]

Топик был перенесен из форума Оформление релизов (кино\мультфильмы\аниме) в форум Отечественные сериалы
Richie Tozier

Ruff

Создавать темы 14.Апр.2015 00:06

[Цитировать]

Бригада
«За всё, что мы делаем, отвечать будем вместе!»
Год выхода: 2002
Оригинальное название: Бригада
Страна: Россия
Продолжительность: ~ 00:50:00 *15
Жанр: драма, криминал
Режиссер: Алексей Сидоров
В ролях: Сергей Безруков, Владимир Вдовиченков, Дмитрий Дюжев, Павел Майков, Андрей Панин, Екатерина Гусева, Леонид Куравлев, Николай Еременко мл., Александр Белявский, Валентина Теличкина, Алексей Кравченко, Дарья Повереннова, Ян Цапник, Светлана Чуйкина, Алексей Алексеев, Мария Аронова.
Перевод: Оригинальный
Субтитры: нет

Описание:
Это история четырех друзей детства, обычных московских парней, Саши Белого, Космоса, Пчелы и Фила, выросших в одном дворе. Друзья решили немного подзаработать, но незапланированное убийство вмиг перемешало все задуманное, поставив на кон их жизни. Ставка слишком высока, но отступать некуда. Теперь парни прокладывают себе дорогу в криминальном мире и волею судеб превращаются в одну из самых сплоченных и влиятельных группировок…
    
Файл:
Качество: DVDRip-AVC (источник: DVD-9 / 576p)
Формат: MKV
Видео: 688x408 (1.68:1), 25 fps, h264 ~2100 kbps avg
Аудио: 48 kHz, AC3 Dolby Digital, 3/2 (L,C,R,l,r) + LFE ch, ~448.00 kbps avg
    
    

Скриншоты

                    

MediaInfo

Формат : Matroska
Версия формата : Version 2
Размер файла : 944 Мбайт
Продолжительность : 51 м.
Общий поток : 2549 Кбит/сек
Дата кодирования : UTC 2011-10-16 08:10:57
Программа кодирования : mkvmerge v2.9.8 ('C'est le bon') built on Aug 24 2009 17:34:03
Библиотека кодирования : libebml v0.7.7 + libmatroska v0.8.1
Видео
Идентификатор : 1
Формат : AVC
Формат/Информация : Advanced Video Codec
Профиль формата : High@L3.0
Параметр CABAC формата : Да
Параметр ReFrames формата : 6 кадров
Параметр GOP формата : N=1
Идентификатор кодека : V_MPEG4/ISO/AVC
Продолжительность : 51 м.
Битрейт : 2100 Кбит/сек
Ширина : 688 пикселей
Высота : 408 пикселей
Соотношение сторон : 1,686
Частота кадров : 25,000 кадров/сек
Цветовое пространство : YUV
Субдискретизация насыщенности : 4:2:0
Битовая глубина : 8 бит
Тип развёртки : Прогрессивная
Бит/(Пиксели*Кадры) : 0.299
Размер потока : 759 Мбайт (80%)
Библиотека кодирования : x264 core 75 r1251kMod e553a4c
Настройки программы : cabac=1 / ref=6 / deblock=1:-1:-1 / analyse=0x3:0x133 / me=umh / subme=7 / psy=1 / psy_rd=1.0:0.0 / mixed_ref=1 / me_range=16 / chroma_me=1 / trellis=2 / 8x8dct=1 / cqm=0 / deadzone=21,11 / chroma_qp_offset=-2 / threads=12 / nr=0 / decimate=1 / mbaff=0 / bframes=3 / b_pyramid=0 / b_adapt=2 / b_bias=0 / direct=1 / wpredb=1 / keyint=250 / keyint_min=25 / scenecut=40 / rc_lookahead=40 / rc=abr / mbtree=1 / bitrate=2100 / ratetol=1.0 / qcomp=0.60 / qpmin=10 / qpmax=51 / qpstep=4 / ip_ratio=1.40 / aq=1:1.00
Аудио
Идентификатор : 2
Формат : AC-3
Формат/Информация : Audio Coding 3
Расширение режима : CM (complete main)
Идентификатор кодека : A_AC3
Продолжительность : 51 м.
Вид битрейта : Постоянный
Битрейт : 448 Кбит/сек
Каналы : 6 каналов
Расположение каналов : Front: L C R, Side: L R, LFE
Частота : 48,0 КГц
Битовая глубина : 16 бит
Метод сжатия : С потерями
Размер потока : 166 Мбайт (18%)
 

Текущее время: 20-Авг 03:38

Часовой пояс: UTC + 3