Результатов поиска: 500

Автор Сообщение

deodead

Создавать темы 11.Янв.2019 21:23

[Цитировать]


xCooLx

Создавать темы 11.Янв.2019 20:53

[Цитировать]

День рождения недавно был его и писали это в СМИ, вот люди при таких новостях ностальгируют и смотрят)

deodead

Создавать темы 11.Янв.2019 18:36

[Цитировать]

Quzoxe, некоторые фильмы как хорошее вино - становятся лучше со временем. Посмотрим, что будет еще через 4 года.

Quzoxe

Создавать темы 11.Янв.2019 13:40

[Цитировать]

deodead, я вообще 10 поставил этому фильму)

deodead

Создавать темы 11.Янв.2019 12:24

[Цитировать]

За 4 года рейтинг фильма на Кинопоиске вырос с 7,2 до 8,3. Или красивая картинка в стиле трекера или честный рейтинг. Жаль, что нельзя совместить и то, и другое.

Richie Tozier

Создавать темы 04.Сен.2018 16:14

[Цитировать]

Размер скринов не соответствует заявленному размеру картинки.
Ну и спойлеры со скринами и медаинфо надо бы обозвать как положено.

Razorghost

Создавать темы 03.Сен.2018 18:40

[Цитировать]

Общая информация:-Год выпуска: 1999
Название: В отрыв!
Оригинальное название: Human traffic
Страна: Великобритания, Ирландия
Жанр: Комедия, музыка
Продолжительность: 01:35:21-Перевод: двухголосый DVO
Субтитры: Нет- -Режиссер: Джастин Керриган
В главных ролях: Джон Симм, Лоррейн Пилкингтон, Шон Паркес, Никола Рейнольдс, Дэнни Дайер, Дин Дейвис, Питер Альберт, Жан Андерсон, Теренс Бисли, Сара Блэкберн-Описание:
Возрадуйтесь страждущие, ибо пробил ваш час! Пришла святая пятница, вечером которой рай распахнет для вас свои двери! В этот день величественный и прекрасный уик-энд триумфально раздавит серые и тусклые будни. Оглушительная музыка ворвется под кожу, проткнет вас своим ритмом, словно шприцем, навсегда избавив тело от усталости.
Особые таблетки взорвут голову и вознесут ее в заоблачные дали. Пьянящий дым заполнит легкие, остановив время и превратив его в бесконечный сладкий кайф. И тогда на лбу у утопающего в веселье мира запылает яркая татуировка: «Музыка, наркотики и секс!».
«В отрыв!» — комедийный художественный фильм. Образец современного молодёжного кино о жизни «поколения экстази», показывающий диаметрально противоположную, в позитивном ключе, сторону традиций таких фильмов как «На игле» и «Кислотный дом».-Техническая информация:-Качество: WEB-DLRip
Формат: AVI
Video: Xvid 720x384 25fps 880kbps [V: mpeg4 simple profile, yuv420p, 720x384, 880 kb/s]
Audio: MP3 44100Hz stereo 192kbps [A: Audio Stream (mp3, 44100 Hz, stereo, 192 kb/s)]-

MediaInfo

General
Complete name                  : D:\Video\Human traffic.avi
Format                         : AVI
Format/Info                    : Audio Video Interleave
File size                      : 738 MiB
Duration                       : 1 h 35 min
Overall bit rate               : 1 082 kb/s
Video
ID                             : 0
Format                         : MPEG-4 Visual
Format profile                 : Simple@L3
Format settings, BVOP          : 2
Format settings, QPel          : No
Format settings, GMC           : No warppoints
Format settings, Matrix        : Default (H.263)
Muxing mode                    : Packed bitstream
Codec ID                       : XVID
Codec ID/Hint                  : XviD
Duration                       : 1 h 35 min
Bit rate                       : 880 kb/s
Width                          : 720 pixels
Height                         : 384 pixels
Display aspect ratio           : 1.85:1
Frame rate                     : 25.000 FPS
Color space                    : YUV
Chroma subsampling             : 4:2:0
Bit depth                      : 8 bits
Scan type                      : Progressive
Compression mode               : Lossy
Bits/(Pixel*Frame)             : 0.127
Stream size                    : 600 MiB (81%)
Writing library                : XviD 1.1.0 Beta1 (UTC 2005-01-16)
Audio
ID                             : 1
Format                         : MPEG Audio
Format version                 : Version 1
Format profile                 : Layer 3
Codec ID                       : 55
Codec ID/Hint                  : MP3
Duration                       : 1 h 35 min
Bit rate mode                  : Constant
Bit rate                       : 192 kb/s
Channel(s)                     : 2 channels
Sampling rate                  : 44.1 kHz
Compression mode               : Lossy
Delay relative to video        : 26 ms
Stream size                    : 131 MiB (18%)
Alignment                      : Split accross interleaves
Interleave, duration           : 40  ms (1.00 video frame)
Title                          : Audio Stream
Writing library                : LAME3.92

Скриншоты

Quzoxe

Создавать темы 14.Ноя.2017 16:41

[Цитировать]

Угарное кино)

VelArt

Создавать темы 14.Ноя.2017 11:35

[Цитировать]

242881А таки шо там было?
242844Там Стетхема, вместо привычного вашему уху Зайцева, заменил наш Жонин.
242844дублирован на обе языковые версии в Киеве одними актёрами

Ma3xZ

Создавать темы 14.Ноя.2017 06:47

[Цитировать]

242844 срач о дубляже "Механика 2"
А таки шо там было?

VelArt

Создавать темы 13.Ноя.2017 21:12

[Цитировать]

242802Вряд ли, просто взять того-же Сэмюэла Л. Джексона, его уже давным давно во всех фильмах дублирует Владимир Антоник. Такая же участь и с Райаном Рейнольдсом, после того как Гланц озвучивал его в Дедпуле, он наверное теперь всегда его будет дублировать
242796 все фильмы прокатчика MEGOGO (он же TOP Film Distribution) что на русский, что на украинский язык дублируются в Киеве.
Лютый срач о дубляже "Механика 2", видимо повлиял на политику кампании. Там Стетхема, вместо привычного вашему уху Зайцева, заменил наш Жонин.
"Убийца", который с Костнером и Рейнольдсом полностью дублирован на обе языковые версии в Киеве одними актёрами. Борис Георгиевский за Костнера с его басом хорошо постарался.

Спахич

Создавать темы 13.Ноя.2017 16:58

[Цитировать]

Видимо MEGOGO решило, что знакомые российские голоса привлекут
Вряд ли, просто взять того-же Сэмюэла Л. Джексона, его уже давным давно во всех фильмах дублирует Владимир Антоник. Такая же участь и с Райаном Рейнольдсом, после того как Гланц озвучивал его в Дедпуле, он наверное теперь всегда его будет дублировать

VelArt

Создавать темы 13.Ноя.2017 16:38

[Цитировать]

Спахич, Тут вообще дубляж сам по себе уникальный: Главные герои Рейнольдс и Джексон (Гланц и Антоник) - дублированны в Москве, все остальные - в Киеве. Видимо MEGOGO решило, что знакомые российские голоса привлекут больше людей.
И вообще, все фильмы прокатчика MEGOGO (он же TOP Film Distribution) что на русский, что на украинский язык дублируются в Киеве. prankster
А фильм - хороший.

Спахич

Создавать темы 13.Ноя.2017 10:44

[Цитировать]

Когда делал скрины, заметил забавный момент в локализации на 00:07:26 - "Belarus. Former Soviet Union - Босния и Герцеговина. Бывшая Югославия" sarcastic

Спахич

Создавать темы 13.Ноя.2017 11:24

[Цитировать]

«У каждого дома есть история. У этого – страшная тайна» -Общая информация:-Год выпуска: 2017
Название: Ужас Амитивилля: Пробуждение
Оригинальное название: Amityville: The Awakening
Страна: США
Жанр: Ужасы, триллер
Продолжительность: 01:27:20
Перевод: Профессиональный (полное дублирование) [iTunes]
Субтитры: Нет
Режиссер: Франк Халфун
В главных ролях: Дженнифер Джейсон Ли, Белла Торн, Камерон Монахэн, Томас Манн, Дженнифер Моррисон, Кертвуд Смит, МакКенна Грейс, Тейлор Спрейтлер, Ава Сантана, Хантер Голигоски- -Описание:-Мать-одиночка переезжает с тремя детьми в загадочный дом, даже не подозревая о кровавом прошлом их нового жилища. У каждого дома есть история. У этого — страшная тайна.-Техническая информация:-Качество: WEB-DLRip
Формат: AVI
Видео: 720x304 (2.37:1), 23.976 fps, XviD build 73 ~1747 kbps avg, 0.33 bit/pixel
Аудио #1: Русский: 48 kHz, AC3 Dolby Digital, 3/2 (L,C,R,l,r) + LFE ch, ~384 kbps
Аудио #2: Английский: 48 kHz, AC3 Dolby Digital, 2/0 (L,R) ch, ~192 kbps-СЭМПЛ

MediaInfo

Общее
Полное имя                               : D:\Видео\Amityville.2017.WEB-DLRip.avi
Формат                                   : AVI
Формат/Информация                        : Audio Video Interleave
Размер файла                             : 1,43 Гбайт
Продолжительность                        : 1 ч. 27 м.
Общий поток                              : 2338 Кбит/сек
Программа кодирования                    : VirtualDubMod 1.5.10.2 (build 2540/release)
Библиотека кодирования                   : VirtualDubMod build 2540/release
Видео
Идентификатор                            : 0
Формат                                   : MPEG-4 Visual
Профиль формата                          : Advanced Simple@L5
Параметр BVOP формата                    : 1
Параметр QPel формата                    : Нет
Параметр GMC формата                     : Без точки перехода
Параметр матрицы формата                 : Выборочная
Идентификатор кодека                     : XVID
Идентификатор кодека/Подсказка           : XviD
Продолжительность                        : 1 ч. 27 м.
Битрейт                                  : 1748 Кбит/сек
Ширина                                   : 720 пикселей
Высота                                   : 304 пикселя
Соотношение сторон                       : 2,35:1
Частота кадров                           : 23,976 (24000/1001) кадра/сек
Цветовое пространство                    : YUV
Субдискретизация насыщенности            : 4:2:0
Битовая глубина                          : 8 бит
Тип развёртки                            : Прогрессивная
Метод сжатия                             : С потерями
Бит/(Пиксели*Кадры)                      : 0.333
Размер потока                            : 1,07 Гбайт (75%)
Библиотека кодирования                   : XviD 73
Аудио #1
Идентификатор                            : 1
Формат                                   : AC-3
Формат/Информация                        : Audio Coding 3
Расширение режима                        : CM (complete main)
Параметр Endianness формата              : Big
Идентификатор кодека                     : 2000
Продолжительность                        : 1 ч. 27 м.
Вид битрейта                             : Постоянный
Битрейт                                  : 384 Кбит/сек
Каналы                                   : 6 каналов
Расположение каналов                     : Front: L C R, Side: L R, LFE
Частота                                  : 48,0 КГц
Частота кадров                           : 31,250 кадров/сек (1536 spf)
Метод сжатия                             : С потерями
Размер потока                            : 240 Мбайт (16%)
Выравнивание                             : Разделение по промежуткам
Продолжительность промежутка             : 42  мс. (1,00 видеокадр)
Время предзагрузки промежутка            : 500  мс.
Аудио #2
Идентификатор                            : 2
Формат                                   : AC-3
Формат/Информация                        : Audio Coding 3
Расширение режима                        : CM (complete main)
Параметр Endianness формата              : Big
Идентификатор кодека                     : 2000
Продолжительность                        : 1 ч. 27 м.
Вид битрейта                             : Постоянный
Битрейт                                  : 192 Кбит/сек
Каналы                                   : 2 канала
Расположение каналов                     : Front: L R
Частота                                  : 48,0 КГц
Частота кадров                           : 31,250 кадров/сек (1536 spf)
Метод сжатия                             : С потерями
Размер потока                            : 120 Мбайт (8%)
Выравнивание                             : Разделение по промежуткам
Продолжительность промежутка             : 42  мс. (1,00 видеокадр)
Время предзагрузки промежутка            : 500  мс.

Скриншоты

 

Текущее время: 20-Авг 15:04

Часовой пояс: UTC + 3