Результатов поиска: 103

Автор Сообщение

dap73

Создавать темы 25.Окт.2017 23:30

[Цитировать]

бред конечно полный! Но бред прикольный! посмотреть можно!

Lotter

Создавать темы 24.Окт.2017 23:50

[Цитировать]

Судя по 3 скриншоту, юмор в фильме шикарный.

Спахич

Создавать темы 23.Окт.2017 15:38

[Цитировать]

Напарник«Новорождён и очень опасен» -Общая информация:-Год выпуска: 2017
Название: Напарник
Страна: Россия
Жанр: Комедия, приключения
Продолжительность: 01:32:35
Перевод: Оригинал [iTunes]
Субтитры: Нет
Режиссер: Александр Андрющенко
В главных ролях: Сергей Гармаш, Андрей Назимов, Лиза Арзамасова, Ксения Лаврова-Глинка, Ян Цапник, Филипп Яицкий, Андрей Золотарев, Сахат Дурсунов, Евгений Коряковский, Юнчен Жуань- -Описание:-Неудачная спецоперация заканчивается для майора Хромова переселением в тело маленького ребенка. И всему виной проклятие гадалки! Но даже пересев из полицейской машины в детскую коляску, он умудряется доставить немало хлопот преступному синдикату на Дальнем Востоке. При этом мама ребенка не подозревает, что ее сын способен вести жесткие допросы, а папа вынужден стать невольным «напарником» Хромова. Ведь для того, чтобы вернуть все на свои места, им предстоит закончить спецоперацию, а значит, отец с младенцем начинают охоту на самого опасного главаря местной мафии.-Техническая информация:-Качество: WEB-DLRip
Формат: AVI
Видео: 720x304 (2.37:1), 24 fps, XviD build 50 ~1719 kbps avg, 0.33 bit/pixel
Аудио: Русский: 48 kHz, AC3 Dolby Digital, 3/2 (L,C,R,l,r) + LFE ch, ~384 kbps-СЭМПЛ

MediaInfo

Общее
Полное имя                               : D:\Видео\H4p4PH1k.2O17.O.WEB-DLRip.14OOMB.avi
Формат                                   : AVI
Формат/Информация                        : Audio Video Interleave
Размер файла                             : 1,37 Гбайт
Продолжительность                        : 1 ч. 32 м.
Общий поток                              : 2113 Кбит/сек
Название фильма                          : H4p4PH1k.2O17.O.WEB-DLRip.14OOMB
Программа кодирования                    : VirtualDubMod 1.5.10.2 (build 2540/release)
Формат оригинала/Имя                     : Movie
Видео
Идентификатор                            : 0
Формат                                   : MPEG-4 Visual
Профиль формата                          : Advanced Simple@L5
Параметр BVOP формата                    : 2
Параметр QPel формата                    : Нет
Параметр GMC формата                     : Без точки перехода
Параметр матрицы формата                 : Default (MPEG)
Идентификатор кодека                     : XVID
Идентификатор кодека/Подсказка           : XviD
Продолжительность                        : 1 ч. 32 м.
Битрейт                                  : 1720 Кбит/сек
Ширина                                   : 720 пикселей
Высота                                   : 304 пикселя
Соотношение сторон                       : 2,35:1
Частота кадров                           : 24,000 кадра/сек
Цветовое пространство                    : YUV
Субдискретизация насыщенности            : 4:2:0
Битовая глубина                          : 8 бит
Тип развёртки                            : Прогрессивная
Метод сжатия                             : С потерями
Бит/(Пиксели*Кадры)                      : 0.327
Размер потока                            : 1,11 Гбайт (81%)
Библиотека кодирования                   : XviD 1.2.1 (UTC 2008-12-04)
Аудио
Идентификатор                            : 1
Формат                                   : AC-3
Формат/Информация                        : Audio Coding 3
Расширение режима                        : CM (complete main)
Параметр Endianness формата              : Big
Идентификатор кодека                     : 2000
Продолжительность                        : 1 ч. 32 м.
Вид битрейта                             : Постоянный
Битрейт                                  : 384 Кбит/сек
Каналы                                   : 6 каналов
Расположение каналов                     : Front: L C R, Side: L R, LFE
Частота                                  : 48,0 КГц
Частота кадров                           : 31,250 кадров/сек (1536 spf)
Метод сжатия                             : С потерями
Размер потока                            : 254 Мбайт (18%)
Выравнивание                             : Разделение по промежуткам
Продолжительность промежутка             : 42  мс. (1,00 видеокадр)
Время предзагрузки промежутка            : 500  мс.

Скриншоты

Phantasm

Создавать темы 04.Окт.2017 14:18

[Цитировать]

очень даже неплохо. после прочтения неоднозначных комментов ожидал худшего, но рад, что ожидания не оправдались. надеюсь, что "вий" будет не хуже.

Спахич

Создавать темы 02.Окт.2017 13:44

[Цитировать]

Гоголь. Начало«Самая тёмная ночь перед рассветом» -Общая информация:-Год выпуска: 2017
Название: Гоголь. Начало
Страна: Россия
Жанр: Приключения, триллер, детектив
Продолжительность: 01:46:42
Перевод: Оригинал [iTunes]
Субтитры: Нет
Режиссер: Егор Баранов
В главных ролях: Александр Петров, Олег Меньшиков, Евгений Стычкин, Таисия Вилкова, Артем Ткаченко, Юлия Франц, Евгений Сытый, Ян Цапник, Сергей Бадюк, Марта Тимофеева- -Описание:-Казаки, ведьмы, русалки, утопленницы и другие обитатели Диканьки встречаются лицом к лицу со своим создателем Николаем Гоголем, молодым писарем из Петербурга, который страдает загадочными припадками и может общаться с персонажами из потустороннего мира. Вместе со своим начальником, блестящим столичным следователем Яковым Гуро, начинающий писатель приезжает на Полтавщину расследовать таинственные убийства девушек. Здесь же он встречает свою любовь, которой суждено сыграть роковую роль в его судьбе. Но хватит ли юному литератору духу противостоять невообразимому? Ведь по слухам, которые активно разносят напуганные местные жители, за преступлениями стоит не кто иной, как сам Дьявол в обличии черного всадника.-Техническая информация:-Качество: WEB-DLRip
Формат: AVI
Видео: 720x304 (2.37:1), 24 fps, XviD build 50 ~1561 kbps avg, 0.30 bit/pixel
Аудио: Русский: 48 kHz, AC3 Dolby Digital, 3/2 (L,C,R,l,r) + LFE ch, ~384 kbps-СЭМПЛ

MediaInfo

Общее
Полное имя                               : D:\Видео\G0g0L.Ha4aL0.2O17.O.WEB-DLRip.14OOMB.avi
Формат                                   : AVI
Формат/Информация                        : Audio Video Interleave
Размер файла                             : 1,46 Гбайт
Продолжительность                        : 1 ч. 46 м.
Общий поток                              : 1955 Кбит/сек
Программа кодирования                    : VirtualDubMod 1.5.10.2 (build 2540/release)
Библиотека кодирования                   : VirtualDubMod build 2540/release
Видео
Идентификатор                            : 0
Формат                                   : MPEG-4 Visual
Профиль формата                          : Advanced Simple@L5
Параметр BVOP формата                    : 2
Параметр QPel формата                    : Нет
Параметр GMC формата                     : Без точки перехода
Параметр матрицы формата                 : Default (MPEG)
Идентификатор кодека                     : XVID
Идентификатор кодека/Подсказка           : XviD
Продолжительность                        : 1 ч. 46 м.
Битрейт                                  : 1562 Кбит/сек
Ширина                                   : 720 пикселей
Высота                                   : 304 пикселя
Соотношение сторон                       : 2,35:1
Частота кадров                           : 24,000 кадра/сек
Цветовое пространство                    : YUV
Субдискретизация насыщенности            : 4:2:0
Битовая глубина                          : 8 бит
Тип развёртки                            : Прогрессивная
Метод сжатия                             : С потерями
Бит/(Пиксели*Кадры)                      : 0.297
Размер потока                            : 1,16 Гбайт (80%)
Библиотека кодирования                   : XviD 1.2.1 (UTC 2008-12-04)
Аудио
Идентификатор                            : 1
Формат                                   : AC-3
Формат/Информация                        : Audio Coding 3
Расширение режима                        : CM (complete main)
Параметр Endianness формата              : Big
Идентификатор кодека                     : 2000
Продолжительность                        : 1 ч. 46 м.
Вид битрейта                             : Постоянный
Битрейт                                  : 384 Кбит/сек
Каналы                                   : 6 каналов
Расположение каналов                     : Front: L C R, Side: L R, LFE
Частота                                  : 48,0 КГц
Частота кадров                           : 31,250 кадров/сек (1536 spf)
Метод сжатия                             : С потерями
Размер потока                            : 293 Мбайт (20%)
Выравнивание                             : Разделение по промежуткам
Продолжительность промежутка             : 42  мс. (1,00 видеокадр)
Время предзагрузки промежутка            : 500  мс.

Скриншоты

Спахич

Создавать темы 30.Сен.2017 12:29

[Цитировать]

ALaN_1, ну мне он больше понравился, чем с Эндрю Гарфилдом

ALaN_1

Создавать темы 30.Сен.2017 09:49

[Цитировать]

как по мне, человек паук нынче не тот уже

Спахич

Создавать темы 28.Сен.2017 10:16

[Цитировать]

«Homework can wait. The city can't» -Общая информация:-Год выпуска: 2017
Название: Человек-паук: Возвращение домой
Оригинальное название: Spider-Man: Homecoming
Страна: США
Жанр: Фантастика, боевик, приключения
Продолжительность: 02:13:26
Перевод: Профессиональный (полное дублирование) [iTunes]
Субтитры: Нет
Режиссер: Джон Уоттс
В главных ролях: Роберт Дауни мл., Мариса Томей, Том Холланд, Дональд Гловер, Джон Фавро, Мартин Старр, Майкл Китон, Логан Маршалл-Грин, Гарсель Бове, Энгаури Райс- -Описание:-После исторической встречи с командой Мстителей Питер Паркер возвращается домой, стараясь зажить обычной жизнью под опекой своей тёти Мэй. Но теперь за Питером приглядывает ещё кое-что… Тони Старк видел Человека-Паука в деле и должен стать его наставником. Когда новый злодей Стервятник угрожает уничтожить всё, что дорого Питеру, приходит время доказать всем, что такое настоящий супергерой.-Техническая информация:-Качество: WEB-DLRip
Формат: AVI
Видео: 720x304 (2.37:1), 23.976 fps, XviD build 50 ~1812 kbps avg, 0.34 bit/pixel
Аудио: Русский: 48 kHz, AC3 Dolby Digital, 3/2 (L,C,R,l,r) + LFE ch, ~384 kbps-СЭМПЛ

MediaInfo

Общее
Полное имя                               : D:\Видео\Pauk.2O17.D.WEB-DLRip.2100MB.avi
Формат                                   : AVI
Формат/Информация                        : Audio Video Interleave
Профиль формата                          : OpenDML
Размер файла                             : 2,05 Гбайт
Продолжительность                        : 2 ч. 13 м.
Общий поток                              : 2203 Кбит/сек
Название фильма                          : MoreFilms.TV
Программа кодирования                    : VirtualDubMod 1.5.10.2 (build 2540/release)
Авторское право                          : MoreFilms.TV
Видео
Идентификатор                            : 0
Формат                                   : MPEG-4 Visual
Профиль формата                          : Advanced Simple@L5
Параметр BVOP формата                    : 2
Параметр QPel формата                    : Нет
Параметр GMC формата                     : Без точки перехода
Параметр матрицы формата                 : Default (MPEG)
Идентификатор кодека                     : XVID
Идентификатор кодека/Подсказка           : XviD
Продолжительность                        : 2 ч. 13 м.
Битрейт                                  : 1807 Кбит/сек
Ширина                                   : 720 пикселей
Высота                                   : 304 пикселя
Соотношение сторон                       : 2,35:1
Частота кадров                           : 23,976 (24000/1001) кадра/сек
Цветовое пространство                    : YUV
Субдискретизация насыщенности            : 4:2:0
Битовая глубина                          : 8 бит
Тип развёртки                            : Прогрессивная
Метод сжатия                             : С потерями
Бит/(Пиксели*Кадры)                      : 0.344
Размер потока                            : 1,68 Гбайт (82%)
Библиотека кодирования                   : XviD 1.2.1 (UTC 2008-12-04)
Аудио
Идентификатор                            : 1
Формат                                   : AC-3
Формат/Информация                        : Audio Coding 3
Расширение режима                        : CM (complete main)
Параметр Endianness формата              : Big
Идентификатор кодека                     : 2000
Продолжительность                        : 2 ч. 13 м.
Вид битрейта                             : Постоянный
Битрейт                                  : 384 Кбит/сек
Каналы                                   : 6 каналов
Расположение каналов                     : Front: L C R, Side: L R, LFE
Частота                                  : 48,0 КГц
Частота кадров                           : 31,250 кадров/сек (1536 spf)
Метод сжатия                             : С потерями
Размер потока                            : 367 Мбайт (17%)
Выравнивание                             : Разделение по промежуткам
Продолжительность промежутка             : 42  мс. (1,00 видеокадр)
Время предзагрузки промежутка            : 500  мс.

Скриншоты

nouveaux

Создавать темы 14.Янв.2017 22:50

[Цитировать]

- Год выпуска: 1971
Страна: СССР, Ленфильм
Жанр: драма, военный, история Режиссер: Виктор Трегубович
В ролях: Ефим Копелян, Юрий Соломин, Виталий Соломин, Зиновий Гердт, Александр Демьяненко Качество: DVDRip
Видео: DivX, ~ 1765 Кбит/с, 704x288
Аудио: АС3, 6 ch, 448 Кбит/с
Размер: 2.67 ГБ
Продолжительность: 2 x ~ 01:26:03
Язык: Русский

КАДРЫ ИЗ ФИЛЬМА

МЕДИАИНФО

Тип развёртки : Прогрессивная
Метод сжатия : С потерями
Бит/(Пиксели*Кадры) : 0.348
Размер потока : 1,06 Гбайт (79%)
Библиотека кодирования : Lavc52.61.0
Аудио
Идентификатор : 1
Формат : AC-3
Формат/Информация : Audio Coding 3
Расширение режима : CM (complete main)
Параметр Endianness формата : Big
Идентификатор кодека : 2000
Продолжительность : 1 ч. 26 м.
Вид битрейта : Постоянный
Битрейт : 448 Кбит/сек
Каналы : 6 каналов
Расположение каналов : Front: L C R, Side: L R, LFE
Частота : 48,0 КГц
Частота кадров : 31,250 кадров/сек (1536 spf)
Битовая глубина : 16 бит
Метод сжатия : С потерями
Задержка видео : 10 с. 760 мс.
Размер потока : 276 Мбайт (20%)
Выравнивание : Разделение по промежуткам
Продолжительность промежутка : 40 мс. (1,00 видеокадр)
Время предзагрузки промежутка : 500 мс.
Общее
Полное имя : D:\Кино\Dauriya.(2.serii.iz.2).1971.DivX.DVDRip-sergo7008\Dauriya.(2.serija.iz.2).1971.DivX.DVDRip-sergo7008.avi
Формат : AVI
Формат/Информация : Audio Video Interleave
Размер файла : 1,34 Гбайт
Продолжительность : 1 ч. 26 м.
Общий поток : 2223 Кбит/сек
Программа кодирования : VirtualDubMod 1.5.10.2 (build 2540/release)
Библиотека кодирования : VirtualDubMod build 2540/release
Видео
Идентификатор : 0
Формат : MPEG-4 Visual
Профиль формата : Simple@L1
Параметр BVOP формата : Нет
Параметр QPel формата : Нет
Параметр GMC формата : Без точки перехода
Параметр матрицы формата : Default (H.263)
Идентификатор кодека : DIVX
Идентификатор кодека/Информация : Project Mayo
Идентификатор кодека/Подсказка : DivX 4
Продолжительность : 1 ч. 26 м.
Битрейт : 1765 Кбит/сек
Ширина : 704 пикселя
Высота : 288 пикселей
Соотношение сторон : 2,40:1
Частота кадров : 25,000 кадров/сек
Цветовое пространство : YUV
Субдискретизация насыщенности : 4:2:0
Битовая глубина : 8 бит
Тип развёртки : Прогрессивная
Метод сжатия : С потерями
Бит/(Пиксели*Кадры) : 0.348
Размер потока : 1,06 Гбайт (79%)
Библиотека кодирования : Lavc52.61.0
Аудио
Идентификатор : 1
Формат : AC-3
Формат/Информация : Audio Coding 3
Расширение режима : CM (complete main)
Параметр Endianness формата : Big
Идентификатор кодека : 2000
Продолжительность : 1 ч. 26 м.
Вид битрейта : Постоянный
Битрейт : 448 Кбит/сек[img][/img]
Каналы : 6 каналов
Расположение каналов : Front: L C R, Side: L R, LFE
Частота : 48,0 КГц
Частота кадров : 31,250 кадров/сек (1536 spf)
Битовая глубина : 16 бит
Метод сжатия : С потерями
Задержка видео : 10 с. 360 мс.
Размер потока : 276 Мбайт (20%)
Выравнивание : Разделение по промежуткам
Продолжительность промежутка : 40 мс. (1,00 видеокадр)
Время предзагрузки промежутка : 500 мс.
--100-летию Великой Октябрьской социалистической революции посвящается...

impreza_wrc

Создавать темы 31.Июл.2016 13:40

[Цитировать]

Что курил режиссёр?

K1riLL

Создавать темы 31.Июл.2016 02:12

[Цитировать]

«Хардкор / Hardcore Henry» -Общая информация:-Год выпуска: 2015
Название (рус.): Хардкор
Оригинальное название: Hardcore Henry
Страна: Россия, США
Жанр: Боевик, фантастика
Продолжительность: 01:36:45
Перевод: Профессиональный (полное дублирование)
Субтитры: Нет
Режиссер: Илья Найшуллер / Ilya Nayshuller
В главных ролях: Шарлто Копли, Данила Козловский, Хейли Беннетт, Андрей Дементьев, Сергей Шнуров, Кирилл Серебренников, Александр Паль, Светлана Устинова, Даша Чаруша, Равшана Куркова, Полина Филоненко, Евгений Баженов, Константин Хабенский, Михаил Изотов, Сергей Валяев, Сергей Мезенцев, Виталий Воскресенский, Алена Чехова, Леонид Парфёнов, Тим Рот
-Описание:-Прекрасная супружеская жизнь рядом с очаровательной Эстель — это все, что помнит главный герой после того, как просыпается в неизвестной научной лаборатории, где в чувства его приводит собственная жена. Но супруга тут же оказывается похищенной, и ничего не понимающий главный герой Генри уже вынужден преследовать монстра Акана, который украл его жену.
Теперь ради достижения цели Генри готов на многое. Но позже оказывается, что не только он один является врагом для Акана. У подозрительного Джимми тоже свои планы на злодея. Теперь вместе ребятам предстоит спасти Эстель и предотвратить попытку задействовать армию киборгов в борьбе с человечеством. Им предстоит бороться с самим воплощением зла.-Техническая информация:-    » Качество: WEB-DLRip
    » Контейнер: AVI
    » Видео: 720x384 (1.88:1), 23.976 fps, XviD build 67 ~1761 kbps avg, 0.27 bit/pixel
    » Аудио: Русский: 48 kHz, AC3 Dolby Digital, 3/2 (L,C,R,l,r) + LFE ch, ~384 kbps - [iTunes Russia]
Релиз от:

MediaInfo


Общее
Полное имя                               : D:\Hardcor_2016_WEB-DLRip_iT_by_Dalemake.avi
Формат                                   : AVI
Формат/Информация                        : Audio Video Interleave
Размер файла                             : 1,46 Гбайт
Продолжительность                        : 1 ч. 36 м.
Общий поток                              : 2155 Кбит/сек
Программа кодирования                    : VirtualDubMod 1.5.10.3 | www.virtualdub-fr.org || (build 2550/release)
Библиотека кодирования                   : VirtualDubMod build 2550/release
Видео
Идентификатор                            : 0
Формат                                   : MPEG-4 Visual
Профиль формата                          : Advanced Simple@L5
Параметр BVOP формата                    : 1
Параметр QPel формата                    : Нет
Параметр GMC формата                     : Без точки перехода
Параметр матрицы формата                 : Выборочная
Идентификатор кодека                     : XVID
Идентификатор кодека/Подсказка           : XviD
Продолжительность                        : 1 ч. 36 м.
Битрейт                                  : 1762 Кбит/сек
Ширина                                   : 720 пикселей
Высота                                   : 384 пикселя
Соотношение сторон                       : 1,85:1
Частота кадров                           : 23,976 кадра/сек
Цветовое пространство                    : YUV
Субдискретизация насыщенности            : 4:2:0
Битовая глубина                          : 8 бит
Тип развёртки                            : Прогрессивная
Метод сжатия                             : С потерями
Бит/(Пиксели*Кадры)                      : 0.266
Размер потока                            : 1,19 Гбайт (82%)
Библиотека кодирования                   : XviD 67
Аудио
Идентификатор                            : 1
Формат                                   : AC-3
Формат/Информация                        : Audio Coding 3
Расширение режима                        : CM (complete main)
Параметр Endianness формата              : Big
Идентификатор кодека                     : 2000
Продолжительность                        : 1 ч. 36 м.
Вид битрейта                             : Постоянный
Битрейт                                  : 384 Кбит/сек
Каналы                                   : 6 каналов
Расположение каналов                     : Front: L C R, Side: L R, LFE
Частота                                  : 48,0 КГц
Битовая глубина                          : 16 бит
Метод сжатия                             : С потерями
Размер потока                            : 266 Мбайт (18%)
Выравнивание                             : Разделение по промежуткам
Продолжительность промежутка             : 42  мс. (1,00 видеокадр)
Время предзагрузки промежутка            : 500  мс.

Скриншоты

SQL

Создавать темы 14.Янв.2016 22:33

[Цитировать]

Классный фильм, всем советую!)

SlayerNK

Создавать темы 04.Июл.2015 12:47

[Цитировать]

Собака на сене- Год выпуска: 1977
Страна: CCCP, Ленфильм
Жанр: Музыкальный, комедия, экранизация
Продолжительность: 130 мин

-

Режиссер: Ян Фрид
В ролях: Маргарита Терехова, Михаил Боярский, Армен Джигарханян, Елена Проклова, Зинаида Шарко, Виктор Ильичёв, Игорь Дмитриев, Николай Караченцов, Гелена Ивлиева, Алексей Кожевников
-
Описание: Экранизация одноимённой комедии Лопе де Вега. Графиня Диана де Бельфлор – знатная дама, которой не пристало обращать внимание на людей низкого социального статуса. Почему же каждый раз, когда она видит своего молодого симпатичного секретаря, ее сердце сладко ноет? И не по этой ли причине ее совсем не радуют ухаживания таких разных, но одинаково влиятельных господ? А бедный Теодоро не смеет признаться Диане в своих чувствах. Так и страдали бы бедные влюбленные, если бы не ловкий и хитрый Тристан. Словно по волшебству он сделает Теодоро богатым наследником.-
-
Качество: DVDRip
Формат: MKV
Видео кодек: x264
Аудио кодек: АС3
Видео: AVC 720x540 25.000 fps, ~1799 kbps
Аудио: Russian, 48 kHz, AC3, 2.0 ch, 192 kbps

Скриншоты

MediaInfo

General
Unique ID : 246112751570768650921477648646962644779 (0xB927977FD94B896799126817B2AB872B)
Complete name : Собака на сене.mkv
Format : Matroska
Format version : Version 2
File size : 1.81 GiB
Duration : 2h 10mn
Overall bit rate : 1 993 Kbps
Movie name : Merge 1_1
Encoded date : UTC 2015-06-08 17:05:28
Writing application : DVDFab 9.1.9.9
Writing library : libebml v0.7.8 + libmatroska v0.8.1
Video
ID : 1
Format : AVC
Format/Info : Advanced Video Codec
Format profile : High@L4.1
Format settings, CABAC : Yes
Format settings, ReFrames : 2 frames
Codec ID : V_MPEG4/ISO/AVC
Duration : 2h 10mn
Bit rate : 1 799 Kbps
Width : 720 pixels
Height : 540 pixels
Display aspect ratio : 4:3
Frame rate mode : Constant
Frame rate : 25.000 fps
Color space : YUV
Chroma subsampling : 4:2:0
Bit depth : 8 bits
Scan type : Progressive
Bits/(Pixel*Frame) : 0.185
Stream size : 1.60 GiB (88%)
Writing library : x264 core 142
Encoding settings : cabac=1 / ref=1 / deblock=1:-1:-1 / analyse=0x3:0 / me=hex / subme=5 / psy=0 / mixed_ref=0 / me_range=16 / chroma_me=1 / trellis=0 / 8x8dct=1 / cqm=0 / deadzone=21,11 / fast_pskip=1 / chroma_qp_offset=0 / threads=4 / lookahead_threads=1 / sliced_threads=0 / nr=0 / decimate=1 / interlaced=0 / bluray_compat=0 / constrained_intra=0 / bframes=2 / b_pyramid=0 / b_adapt=1 / b_bias=0 / direct=1 / weightb=1 / open_gop=0 / weightp=0 / keyint=24 / keyint_min=13 / scenecut=40 / intra_refresh=0 / rc=2pass / mbtree=0 / bitrate=1799 / ratetol=1.0 / qcomp=0.60 / qpmin=0 / qpmax=69 / qpstep=4 / cplxblur=20.0 / qblur=0.5 / ip_ratio=1.40 / pb_ratio=1.30 / aq=1:1.00
Default : Yes
Forced : No
Color primaries : BT.601 NTSC
Transfer characteristics : BT.709
Matrix coefficients : BT.601
Audio
ID : 2
Format : AC-3
Format/Info : Audio Coding 3
Mode extension : CM (complete main)
Format settings, Endianness : Big
Codec ID : A_AC3
Duration : 2h 10mn
Bit rate mode : Constant
Bit rate : 192 Kbps
Channel(s) : 2 channels
Channel positions : Front: L R
Sampling rate : 48.0 KHz
Bit depth : 16 bits
Compression mode : Lossy
Stream size : 179 MiB (10%)
Language : Russian
Default : Yes
Forced : No
Торрент обновлён 08.10.2015

VelArt

Создавать темы 26.Май.2015 21:06

[Цитировать]

Ruff, Что то есть. Фильм рекомендую.

Ruff

Создавать темы 26.Май.2015 21:04

[Цитировать]

4-ый скрин напомнил кадр из фильма "В бой идут одни старики" smile3
 

Текущее время: 20-Авг 05:06

Часовой пояс: UTC + 3