Результатов поиска: 371

Автор Сообщение

fazNki

Создавать темы 04.Авг.2019 12:30

[Цитировать]

Название: Бэтмен
Оригинальное название: Batman
Год выхода: 1989
Жанр: фантастика, боевик, триллер, криминал
Режиссер: Тим Бёртон
В ролях: Майкл Китон, Джек Николсон, Ким Бейсингер, Роберт Вул, Пэт Хингл, Билли Ди Уильямс, Майкл Гоф, Джек Пэланс, Джерри Холл, Трейси Уолтер
Выпущено: США, Великобритания
Продолжительность: 02:06:18--Описание: В раннем детстве юный наследник Брюс Уэйн стал свидетелем убийства своих родителей и после этого стал ненавидеть преступность. В Готэме все чаще случались насилие, ограбления и убийства. В трудное для города время появляется герой, способный укротить любого преступника и заставить его бежать в страхе. Таинственный мститель, герой по прозвищу «Бэтмен», встал на защиту слабых и начал свою борьбу с преступниками. Раскрыть таинственность героя, узнать, кто скрывается за маской героя хотят журналистка Вики Вейл и репортер Нокс. Тем временем один из преступников, уходя от полицейской погони, упал в чан с химикатами и превратился в Джокера, который стал угрозой для города. Только Бэтмен может ему помешать…
Релиз: --Информация о релизе
Формат: MKV
Источник: Batman 1989 2160p UHD Blu-ray HEVC TrueHD 7.1-BeyondHD
Видео: 3840x2160 at 23.976 fps, MPEG-H HEVC HDR, ~69996 kbps
Аудио#1: Russian: 48 kHz, AC3, 3/2 (L,C,R,l,r) + LFE ch, ~640 kbps avg |Дубляж, Blu-Ray СEE|
Аудио#2: Russian: 48 kHz, AC3, 2/0 (L,R) ch, ~192 kbps avg |Многоголосый закадровый, СТС|
Аудио#3: Russian: 48 kHz, AC3, 2/0 (L,R) ch, ~192 kbps avg |Многоголосый закадровый, ОРТ|
Аудио#4: Russian: 48 kHz, AC3, 2/0 (L,R) ch, ~192 kbps avg |Многоголосый закадровый, Россия|
Аудио#5: Russian: 48 kHz, AC3, 2/0 (L,R) ch, ~192 kbps avg |Двухголосый закадровый, НТВ|
Аудио#6: Russian: 48 kHz, AC3, 2/0 (L,R) ch, ~192 kbps avg |Двухголосый закадровый, TV1000|
Аудио#7: Russian: 48 kHz/24-bit, DTS-HD MA 5.1 , ~2346 kbps avg |Одноголосый закадровый, А. Гаврилов|
Аудио#8: Russian: 48 kHz/24-bit, DTS-HD MA 5.1 , ~2344 kbps avg |Одноголосый закадровый, Г. Либергал|
Аудио#9: Russian: 48 kHz, AC3, 3/2 (L,C,R,l,r) + LFE ch, ~448 kbps avg |Одноголосый закадровый, Л. Володарский|
Аудио#10: Russian: 48 kHz, AC3, 2/0 (L,R) ch, ~192 kbps avg |Одноголосый закадровый, А. Козлов|
Аудио#11: Russian: 48 kHz, AC3, 2/0 (L,R) ch, ~192 kbps avg |Одноголосый закадровый, В. Горчаков|
Аудио#12: Russian: 48 kHz, AC3, 2/0 (L,R) ch, ~192 kbps avg |Одноголосый закадровый, С. Визгунов|
Аудио#13: Ukrainian: 48 kHz, AC3, 3/2 (L,C,R,l,r) + LFE ch, ~384 kbps avg |Многоголосый закадровый, ICTV|
Аудио#14: English: 48 kHz/24-bit, Atmos TrueHD 7.1, ~3782 kbps avg
Аудио#15: Russian: 48 kHz, AC3, 3/2 (L,C,R,l,r) + LFE ch, ~640 kbps avg
Субтитры: Russian (full), Ukrainian (full), English (full,SDH)

Mediainfo

General
Unique ID : 42879368428706436458079217637058373308 (0x204244164DB8588CE3E98049F03766BC)
Complete name : C:\Users\Public\Videos\Sample Videos\Filmy\Batman.1989.2160p.HDR.BDRemux.TeamHD.mkv
Format : Matroska
Format version : Version 4
File size : 72.5 GiB
Duration : 2 h 6 min
Overall bit rate mode : Variable
Overall bit rate : 82.2 Mb/s
Movie name : Batman.1989.BDRemux.2160p.HDR by Silverok
Encoded date : UTC 2019-06-02 08:38:56
Writing application : mkvmerge v34.0.0 ('Sight and Seen') 64-bit
Writing library : libebml v1.3.7 + libmatroska v1.5.0
Cover : Yes
Attachments : cover.jpg
Video
ID : 1
Format : HEVC
Format/Info : High Efficiency Video Coding
Format profile : Main 10@L5.1@High
HDR format : SMPTE ST 2086, HDR10 compatible
Codec ID : V_MPEGH/ISO/HEVC
Duration : 2 h 6 min
Bit rate : 70.0 Mb/s
Width : 3 840 pixels
Height : 2 160 pixels
Display aspect ratio : 16:9
Frame rate mode : Constant
Frame rate : 23.976 (24000/1001) FPS
Color space : YUV
Chroma subsampling : 4:2:0 (Type 2)
Bit depth : 10 bits
Bits/(Pixel*Frame) : 0.352
Stream size : 61.8 GiB (85%)
Title : BDRemux.2160p.HDR by Silverok
Writing library : ATEME Titan File 3.9.0 (4.9.0.0)
Default : Yes
Forced : No
Color range : Limited
Color primaries : BT.2020
Transfer characteristics : PQ
Matrix coefficients : BT.2020 non-constant
Mastering display color primaries : Display P3
Mastering display luminance : min: 0.0050 cd/m2, max: 4000 cd/m2
Maximum Content Light Level : 1284 cd/m2
Maximum Frame-Average Light Level : 113 cd/m2
Audio #1
ID : 2
Format : AC-3
Format/Info : Audio Coding 3
Commercial name : Dolby Digital
Codec ID : A_AC3
Duration : 2 h 6 min
Bit rate mode : Constant
Bit rate : 640 kb/s
Channel(s) : 6 channels
Channel layout : L R C LFE Ls Rs
Sampling rate : 48.0 kHz
Frame rate : 31.250 FPS (1536 SPF)
Bit depth : 16 bits
Compression mode : Lossy
Stream size : 578 MiB (1%)
Title : Профессиональный (дублированный) | Blu-Ray СEE
Language : Russian
Service kind : Complete Main
Default : Yes
Forced : No
Audio #2
ID : 3
Format : AC-3
Format/Info : Audio Coding 3
Commercial name : Dolby Digital
Codec ID : A_AC3
Duration : 2 h 6 min
Bit rate mode : Constant
Bit rate : 192 kb/s
Channel(s) : 2 channels
Channel layout : L R
Sampling rate : 48.0 kHz
Frame rate : 31.250 FPS (1536 SPF)
Bit depth : 16 bits
Compression mode : Lossy
Stream size : 173 MiB (0%)
Title : Профессиональный (многоголосый закадровый) | СТС
Language : Russian
Service kind : Complete Main
Default : No
Forced : No
Audio #3
ID : 4
Format : AC-3
Format/Info : Audio Coding 3
Commercial name : Dolby Digital
Codec ID : A_AC3
Duration : 2 h 6 min
Bit rate mode : Constant
Bit rate : 192 kb/s
Channel(s) : 2 channels
Channel layout : L R
Sampling rate : 48.0 kHz
Frame rate : 31.250 FPS (1536 SPF)
Bit depth : 16 bits
Compression mode : Lossy
Stream size : 173 MiB (0%)
Title : Профессиональный (многоголосый закадровый) | ОРТ
Language : Russian
Service kind : Complete Main
Default : No
Forced : No
Audio #4
ID : 5
Format : AC-3
Format/Info : Audio Coding 3
Commercial name : Dolby Digital
Codec ID : A_AC3
Duration : 2 h 6 min
Bit rate mode : Constant
Bit rate : 192 kb/s
Channel(s) : 2 channels
Channel layout : L R
Sampling rate : 48.0 kHz
Frame rate : 31.250 FPS (1536 SPF)
Bit depth : 16 bits
Compression mode : Lossy
Stream size : 173 MiB (0%)
Title : Профессиональный (многоголосый закадровый) | Россия
Language : Russian
Service kind : Complete Main
Default : No
Forced : No
Audio #5
ID : 6
Format : AC-3
Format/Info : Audio Coding 3
Commercial name : Dolby Digital
Codec ID : A_AC3
Duration : 2 h 6 min
Bit rate mode : Constant
Bit rate : 192 kb/s
Channel(s) : 2 channels
Channel layout : L R
Sampling rate : 48.0 kHz
Frame rate : 31.250 FPS (1536 SPF)
Bit depth : 16 bits
Compression mode : Lossy
Stream size : 173 MiB (0%)
Title : Профессиональный (двухголосый закадровый) | НТВ
Language : Russian
Service kind : Complete Main
Default : No
Forced : No
Audio #6
ID : 7
Format : AC-3
Format/Info : Audio Coding 3
Commercial name : Dolby Digital
Codec ID : A_AC3
Duration : 2 h 6 min
Bit rate mode : Constant
Bit rate : 192 kb/s
Channel(s) : 2 channels
Channel layout : L R
Sampling rate : 48.0 kHz
Frame rate : 31.250 FPS (1536 SPF)
Bit depth : 16 bits
Compression mode : Lossy
Stream size : 173 MiB (0%)
Title : Профессиональный (двухголосый закадровый) | TV1000
Language : Russian
Service kind : Complete Main
Default : No
Forced : No
Audio #7
ID : 8
Format : DTS XLL
Format/Info : Digital Theater Systems
Commercial name : DTS-HD Master Audio
Codec ID : A_DTS
Duration : 2 h 6 min
Bit rate mode : Variable
Bit rate : 2 346 kb/s
Channel(s) : 6 channels
Channel layout : C L R Ls Rs LFE
Sampling rate : 48.0 kHz
Frame rate : 93.750 FPS (512 SPF)
Bit depth : 16 bits
Compression mode : Lossless
Delay relative to video : 2 ms
Stream size : 2.07 GiB (3%)
Title : Авторский (одноголосый закадровый) | А. Гаврилов
Language : Russian
Default : No
Forced : No
Audio #8
ID : 9
Format : DTS XLL
Format/Info : Digital Theater Systems
Commercial name : DTS-HD Master Audio
Codec ID : A_DTS
Duration : 2 h 6 min
Bit rate mode : Variable
Bit rate : 2 344 kb/s
Channel(s) : 6 channels
Channel layout : C L R Ls Rs LFE
Sampling rate : 48.0 kHz
Frame rate : 93.750 FPS (512 SPF)
Bit depth : 16 bits
Compression mode : Lossless
Delay relative to video : 2 ms
Stream size : 2.07 GiB (3%)
Title : Авторский (одноголосый закадровый) | Г. Либергал
Language : Russian
Default : No
Forced : No
Audio #9
ID : 10
Format : AC-3
Format/Info : Audio Coding 3
Commercial name : Dolby Digital
Codec ID : A_AC3
Duration : 2 h 6 min
Bit rate mode : Constant
Bit rate : 448 kb/s
Channel(s) : 6 channels
Channel layout : L R C LFE Ls Rs
Sampling rate : 48.0 kHz
Frame rate : 31.250 FPS (1536 SPF)
Bit depth : 16 bits
Compression mode : Lossy
Stream size : 405 MiB (1%)
Title : Авторский (одноголосый закадровый) | Л. Володарский
Language : Russian
Service kind : Complete Main
Default : No
Forced : No
Audio #10
ID : 11
Format : AC-3
Format/Info : Audio Coding 3
Commercial name : Dolby Digital
Codec ID : A_AC3
Duration : 2 h 6 min
Bit rate mode : Constant
Bit rate : 192 kb/s
Channel(s) : 2 channels
Channel layout : L R
Sampling rate : 48.0 kHz
Frame rate : 31.250 FPS (1536 SPF)
Bit depth : 16 bits
Compression mode : Lossy
Stream size : 173 MiB (0%)
Title : Авторский (одноголосый закадровый) | А. Козлов
Language : Russian
Service kind : Complete Main
Default : No
Forced : No
Audio #11
ID : 12
Format : AC-3
Format/Info : Audio Coding 3
Commercial name : Dolby Digital
Codec ID : A_AC3
Duration : 2 h 6 min
Bit rate mode : Constant
Bit rate : 192 kb/s
Channel(s) : 2 channels
Channel layout : L R
Sampling rate : 48.0 kHz
Frame rate : 31.250 FPS (1536 SPF)
Bit depth : 16 bits
Compression mode : Lossy
Stream size : 173 MiB (0%)
Title : Авторский (одноголосый закадровый) | В. Горчаков
Language : Russian
Service kind : Complete Main
Default : No
Forced : No
Audio #12
ID : 13
Format : AC-3
Format/Info : Audio Coding 3
Commercial name : Dolby Digital
Codec ID : A_AC3
Duration : 2 h 6 min
Bit rate mode : Constant
Bit rate : 192 kb/s
Channel(s) : 2 channels
Channel layout : L R
Sampling rate : 48.0 kHz
Frame rate : 31.250 FPS (1536 SPF)
Bit depth : 16 bits
Compression mode : Lossy
Stream size : 173 MiB (0%)
Title : Авторский (одноголосый закадровый) | С. Визгунов
Language : Russian
Service kind : Complete Main
Default : No
Forced : No
Audio #13
ID : 14
Format : AC-3
Format/Info : Audio Coding 3
Commercial name : Dolby Digital
Codec ID : A_AC3
Duration : 2 h 6 min
Bit rate mode : Constant
Bit rate : 384 kb/s
Channel(s) : 6 channels
Channel layout : L R C LFE Ls Rs
Sampling rate : 48.0 kHz
Frame rate : 31.250 FPS (1536 SPF)
Bit depth : 16 bits
Compression mode : Lossy
Stream size : 347 MiB (0%)
Title : Профессиональный (многоголосый закадровый) | ICTV
Language : Ukrainian
Service kind : Complete Main
Default : No
Forced : No
Audio #14
ID : 15
Format : MLP FBA 16-ch
Format/Info : Meridian Lossless Packing FBA with 16-channel presentation
Commercial name : Dolby TrueHD with Dolby Atmos
Codec ID : A_TRUEHD
Duration : 2 h 6 min
Bit rate mode : Variable
Bit rate : 3 772 kb/s
Maximum bit rate : 6 912 kb/s
Channel(s) : 8 channels
Channel layout : L R C LFE Ls Rs Lb Rb
Sampling rate : 48.0 kHz
Frame rate : 1 200.000 FPS (40 SPF)
Compression mode : Lossless
Stream size : 3.33 GiB (5%)
Language : English
Default : No
Forced : No
Number of dynamic objects : 15
Bed channel count : 1 channel
Bed channel configuration : LFE
Audio #15
ID : 16
Format : AC-3
Format/Info : Audio Coding 3
Commercial name : Dolby Digital
Codec ID : A_AC3
Duration : 2 h 6 min
Bit rate mode : Constant
Bit rate : 640 kb/s
Channel(s) : 6 channels
Channel layout : L R C LFE Ls Rs
Sampling rate : 48.0 kHz
Frame rate : 31.250 FPS (1536 SPF)
Bit depth : 16 bits
Compression mode : Lossy
Stream size : 578 MiB (1%)
Language : English
Service kind : Complete Main
Default : No
Forced : No
Text #1
ID : 17
Format : UTF-8
Codec ID : S_TEXT/UTF8
Codec ID/Info : UTF-8 Plain Text
Duration : 1 h 59 min
Bit rate : 43 b/s
Count of elements : 999
Stream size : 38.1 KiB (0%)
Title : Full
Language : Russian
Default : Yes
Forced : No
Text #2
ID : 18
Format : UTF-8
Codec ID : S_TEXT/UTF8
Codec ID/Info : UTF-8 Plain Text
Duration : 2 h 5 min
Bit rate : 43 b/s
Count of elements : 1046
Stream size : 40.2 KiB (0%)
Title : Full
Language : Ukrainian
Default : No
Forced : No
Text #3
ID : 19
Format : UTF-8
Codec ID : S_TEXT/UTF8
Codec ID/Info : UTF-8 Plain Text
Duration : 2 h 3 min
Bit rate : 36 b/s
Count of elements : 1002
Stream size : 33.4 KiB (0%)
Title : Full
Language : English
Default : No
Forced : No
Text #4
ID : 20
Format : UTF-8
Codec ID : S_TEXT/UTF8
Codec ID/Info : UTF-8 Plain Text
Duration : 1 h 59 min
Bit rate : 40 b/s
Count of elements : 1105
Stream size : 35.7 KiB (0%)
Title : SDH
Language : English
Default : No
Forced : No
Menu
00:00:00.000 : en:Credits
00:02:33.153 : en:"I'm Batman"
00:07:03.590 : en:Looking Fine
00:09:26.566 : en:Better Be Sure
00:12:21.991 : en:Knox Meets Vale
00:14:41.839 : en:Grissom's #1 Guy
00:17:03.564 : en:Party at Wayne Manor
00:20:05.287 : en:Their Odd Host
00:23:57.811 : en:Axis Chemical Ambush
00:27:05.749 : en:Napier's Plunge
00:30:25.365 : en:Dinner for Two
00:34:12.259 : en:Drastic Surgery
00:36:13.546 : en:Call Me Joker
00:38:24.302 : en:"Get a Load of Me"
00:41:06.047 : en:Glad You're Dead
00:45:06.495 : en:Two Roses
00:48:06.801 : en:Vengeance - And No Press
00:50:51.465 : en:So Much to Do
00:54:18.881 : en:Put On a Happy Face
00:57:54.096 : en:Cosmetics Scare
00:59:34.070 : en:Museum Date
01:06:37.785 : en:Wonderful Toys
01:12:23.923 : en:Not Exactly Normal
01:16:28.959 : en:A Name to My Pain
01:18:18.861 : en:Not Quite Telling Her
01:21:10.449 : en:Dancing With the Devil
01:25:29.833 : en:Don't Get Personal
01:27:24.739 : en:Gauntlet Thrown
01:29:32.701 : en:Sad Memory; Getting In
01:33:57.799 : en:Chemical Inferno
01:35:50.119 : en:Gotham's Greed
01:38:15.556 : en:The Batwing
01:42:43.616 : en:Come to Me
01:46:34.013 : en:Bell Tower Ascent
01:50:10.729 : en:Bat in My Belfry
01:53:19.960 : en:Downfalls
01:59:42.967 : en:Signals
02:02:30.134 : en:End Credits
Скриншоты

Портвешок

Создавать темы 02.Авг.2019 22:52

[Цитировать]

Фильм из детства.
Был ещё такой Хон Гильдон.
Я на них каждый день в кинотеатр ходил. rofl

vkonte

Создавать темы 07.Июл.2019 15:18

[Цитировать]

Охохох какой контент подъехал! Спасяб! Давно хотелось еще раз посмотреть, а тут еще и укр перевод есть good

Lucius

Создавать темы 07.Июл.2019 12:45

[Цитировать]

Смотрю на постер, думаю неееееееееееееее, открываю именно тот фильм bububu

Mesivo

Создавать темы 07.Июл.2019 09:44

[Цитировать]

316102VelArt, ну HEVC H.265, качество лучше чем у AVC H.264, кодек такой.
sarcastic_hand лучше ага. если настраивать умеешь и если сорц подходит. а если нет то не лучше

VelArt

Создавать темы 07.Июл.2019 08:29

[Цитировать]

Darth Enot, у меня этот кодек телек и медиаплеер не понимают.

Darth Enot

Создавать темы 06.Июл.2019 23:14

[Цитировать]

VelArt, ну HEVC H.265, качество лучше чем у AVC H.264, кодек такой.

VelArt

Создавать темы 06.Июл.2019 22:55

[Цитировать]

316097VelArt, обе части в hevc! carnby
куда?

Darth Enot

Создавать темы 06.Июл.2019 22:44

[Цитировать]

VelArt, обе части в hevc! carnby

VelArt

Создавать темы 06.Июл.2019 22:06

[Цитировать]

316091Помнится, там еще "Короткое замыкание" крутили.
О! Сделаю!

jeycon

Создавать темы 06.Июл.2019 21:45

[Цитировать]

VelArt - мыслеугадун sarcastic .
Я вчера о нем вспомнил, а тут ты. hi
Помнится, там еще "Короткое замыкание" крутили.

VelArt

Создавать темы 06.Июл.2019 20:27

[Цитировать]

Pacifist, Мой сын кино оценил. Как и я в его возрасте.

Pacifist

Создавать темы 06.Июл.2019 20:21

[Цитировать]

316071Олды тут? hi
Помню ходили в кино на него всей толпой, некоторые по несколько раз в день :)
Тогда это смотрелась как то волшебно, сейчас смотреть не буду опасаюсь разочароваться.
Большее впечатление у меня осталось только после просмотра "Заклятие долины змей" ходили на него вечером всем классом, а затем в сумерках перебежками трусили домой.

VelArt

Создавать темы 06.Июл.2019 20:02

[Цитировать]

Олды тут? hi
Делал для себя - делюсь с вами.
Хотел для ламповости прикрутить ещё перевод с видеокассет, но тот что в сети - не тот что был у меня. Да и качество звука - говно.
Качество звука на дубляжах - тоже не фонтан, ибо цифровались с плёнки, но они тоже ламповые. У нас в кинотеатрах крутили тогда обе версии.

VelArt

Создавать темы 06.Июл.2019 18:20

[Цитировать]

«Полёт Навигатора»-Общая информация:-Год выпуска: 1986
Название (рус.): Полёт Навигатора
Оригинальное название: Flight of the Navigator
Студия: Walt Disney Pictures
Страны производства: США, Норвегия
Жанр: фантастика, приключения, детский
Продолжительность: 1:29:33
Перевод: Советский дубляж (Киностудии "им. Александра Довженко" (Украинский) и "им. Максима Горького" (Русский)), Профессиональный многоголосый (телеканал "1+1" (Украинский) и "СТС" (Русский))
Субтитры: Украинские, Русские, Английские
Режиссер: Рэндал Клайзер
В главных ролях: Джои Крэймер, Вероника Картрайт, Клифф ДеЯнг, Сара Джессика Паркер, Мэтт Эдлер, Эби Уитэкер, Говард Хессеман, Роберт Смолл, Джонатан Сэнгер, Ирис Эккер, Ричард Либерти, Рэймонд Форчион
-Описание:-Двенадцатилетний Дэвид пропадает без вести и самым таинственным образом возвращается восемь лет спустя, ничуть не повзрослевшим. Одновременно с его появлением в окрестностях обнаруживают НЛО. И не случайно! Все эти восемь лет Дэвид провёл в обществе инопланетян и из глубин вселенной принёс знания, ранее не известные человечеству.
За это время Дэвид стал опытным пилотом, и на фантастическом летательном аппарате может улететь, куда только не пожелает! Навигатор отправляется в полный приключений полёт.-Техническая информация:-    » Качество: BDRip 1080p
    » Контейнер: MKV
    » Видео: MPEG-4 AVC, ~ 9692 Кбит/с, 1920x1080, 23.976 кадр/с
    » Аудио #1: Украинский: AC3, 48.0 KHz, 2 ch., 192 kbps - Советский дубляж - ("Киностудия имени Александра Довженко")*
    » Аудио #2: Украинский: AC3, 48.0 KHz, 2 ch., 192 kbps - Многоголосый закадровый ("Так Треба Продакшн" по заказу телеканала "1+1")
    » Аудио #3: Русский: AC3, 48.0 KHz, 2 ch., 192 kbps - Советский дубляж - ("Киностудия имени Максима Горького")**
    » Аудио #4: Русский: AC3, 48.0 KHz, 2 ch., 192 kbps - Многоголосый закадровый (Телеканал "СТС")
    » Аудио #5: Английский: AC3, 48.0 KHz, 6 ch., 448 kbps - Оригинал
    » Субтитры: Украинские, Русские, Английские
»    * Українською мовою фільм дубльовано на кіностудії імені Олександра Довженко у 1989 році. Ролі дублювали: Сашко Смажелюк, Ігор Стариков, Валентина Гришокіна, Владислав Пупков, Андрій Подубинський та інші..
»    ** На русский язык фильм дублирован на киностудии имени Максима Горького в 1989 году. Роли дублировали: Володя Думчев, Вадим Андреев, Лилия Захарова, Мария Володина, Сергей Малишевский и другие...
-Благодарности:-- за матеріальну допомогу по викупу дубляжу: _oles, Dim-ON, NemoInFire, salud111, Rost3, 192000, MutuLI, victor_v, sando7, yuriy03346, Sergo_k_s_v, гілка;
- за оцифровку звуку з кіноплівки: persi-kot (rutracker.org);
- за запис звуку з 1+1: xslim;
- за зведення українських доріжок: Hanway;
- за українські субтитри: Кіномеханік;
Первоисточник советской прокатной копии - Профессор Фэйт (rutracker.org)
Русский дубляж, закадровый перевод СТС и видео взяты из раздачи colHze (kinozal.tv) Украинский дубляж и закадровый перевод "Так Треба Продакшн" взяты из раздачи staf777 (toloka.to)

Medianfo

General
Unique ID : 173780344910139079517028538701592771447 (0x82BCE083207D44D5953FAD421E1DBB77)
Complete name : D:\!_Дима\Flight.of.the.Navigator-2xDUB.2xMVO-UA.RU.EN.BDRip.1080p.mkv
Format : Matroska
Format version : Version 4 / Version 2
File size : 6.83 GiB
Duration : 1h 29mn
Overall bit rate : 10.9 Mbps
Movie name : Flight of the Navigator - [VelArt for avg.club]
Encoded date : UTC 2019-07-06 12:04:36
Writing application : mkvmerge v8.3.0 ('Over the Horizon') 64bit
Writing library : libebml v1.3.1 + libmatroska v1.4.2
DURATION : 01:23:07.080000000
NUMBER_OF_FRAMES : 998
NUMBER_OF_BYTES : 64784
_STATISTICS_WRITING_APP : mkvmerge v8.3.0 ('Over the Horizon') 64bit
_STATISTICS_WRITING_DATE_UTC : 2019-07-06 12:04:36
_STATISTICS_TAGS : BPS DURATION NUMBER_OF_FRAMES NUMBER_OF_BYTES
Video
ID : 1
Format : AVC
Format/Info : Advanced Video Codec
Format profile : High@L4.1
Format settings, CABAC : Yes
Format settings, ReFrames : 4 frames
Codec ID : V_MPEG4/ISO/AVC
Duration : 1h 29mn
Bit rate : 9 692 Kbps
Width : 1 920 pixels
Height : 1 080 pixels
Display aspect ratio : 16:9
Frame rate mode : Constant
Frame rate : 23.976 fps
Color space : YUV
Chroma subsampling : 4:2:0
Bit depth : 8 bits
Scan type : Progressive
Bits/(Pixel*Frame) : 0.195
Stream size : 5.93 GiB (87%)
Title : Flight.Of.The.Navigator
Writing library : x264 core 114 r1924 08d04a4
Encoding settings : cabac=1 / ref=4 / deblock=1:0:0 / analyse=0x3:0x113 / me=umh / subme=7 / psy=1 / psy_rd=1.00:0.00 / mixed_ref=1 / me_range=16 / chroma_me=1 / trellis=1 / 8x8dct=1 / cqm=0 / deadzone=21,11 / fast_pskip=0 / chroma_qp_offset=-2 / threads=12 / sliced_threads=0 / nr=0 / decimate=1 / interlaced=0 / constrained_intra=0 / bframes=3 / b_pyramid=2 / b_adapt=2 / b_bias=0 / direct=1 / weightb=1 / open_gop=0 / weightp=2 / keyint=250 / keyint_min=23 / scenecut=40 / intra_refresh=0 / rc_lookahead=40 / rc=2pass / mbtree=1 / bitrate=9692 / ratetol=1.0 / qcomp=0.60 / qpmin=10 / qpmax=51 / qpstep=4 / cplxblur=20.0 / qblur=0.5 / ip_ratio=1.40 / aq=1:1.00
Default : Yes
Forced : No
DURATION : 01:29:33.285000000
NUMBER_OF_FRAMES : 128830
NUMBER_OF_BYTES : 6509308138
_STATISTICS_WRITING_APP : mkvmerge v8.3.0 ('Over the Horizon') 64bit
_STATISTICS_WRITING_DATE_UTC : 2019-07-06 12:04:36
_STATISTICS_TAGS : BPS DURATION NUMBER_OF_FRAMES NUMBER_OF_BYTES
Audio #1
ID : 2
Format : AC-3
Format/Info : Audio Coding 3
Mode extension : CM (complete main)
Format settings, Endianness : Big
Codec ID : A_AC3
Duration : 1h 29mn
Bit rate mode : Constant
Bit rate : 192 Kbps
Channel(s) : 2 channels
Channel positions : Front: L R
Sampling rate : 48.0 KHz
Compression mode : Lossy
Stream size : 123 MiB (2%)
Title : Українська (Дубляж) - кіностудія iм. Олександра Довженко (1989 рік)
Language : Ukrainian
Default : Yes
Forced : No
Audio #2
ID : 3
Format : AC-3
Format/Info : Audio Coding 3
Mode extension : CM (complete main)
Format settings, Endianness : Big
Codec ID : A_AC3
Duration : 1h 29mn
Bit rate mode : Constant
Bit rate : 192 Kbps
Channel(s) : 2 channels
Channel positions : Front: L R
Sampling rate : 48.0 KHz
Compression mode : Lossy
Stream size : 123 MiB (2%)
Title : Українська (Багатоголосий) - "Так Треба Продакшен" на замовлення телеканалу "1+1"
Language : Ukrainian
Default : No
Forced : No
Audio #3
ID : 4
Format : AC-3
Format/Info : Audio Coding 3
Format profile : Dolby Digital
Mode extension : CM (complete main)
Format settings, Endianness : Big
Codec ID : A_AC3
Duration : 1h 29mn
Bit rate mode : Constant
Bit rate : 192 Kbps
Channel(s) : 2 channels
Channel positions : Front: L R
Sampling rate : 48.0 KHz
Compression mode : Lossy
Stream size : 123 MiB (2%)
Title : Русский (Дубляж) - киностудия им. Максима Горького - (1989 год)
Language : Russian
Default : No
Forced : No
Audio #4
ID : 5
Format : AC-3
Format/Info : Audio Coding 3
Mode extension : CM (complete main)
Format settings, Endianness : Big
Codec ID : A_AC3
Duration : 1h 29mn
Bit rate mode : Constant
Bit rate : 192 Kbps
Channel(s) : 2 channels
Channel positions : Front: L R
Sampling rate : 48.0 KHz
Compression mode : Lossy
Stream size : 123 MiB (2%)
Title : Русский (Многоголосый) - Телеканал "СТС"
Language : Russian
Default : No
Forced : No
Audio #5
ID : 6
Format : AC-3
Format/Info : Audio Coding 3
Mode extension : CM (complete main)
Format settings, Endianness : Big
Codec ID : A_AC3
Duration : 1h 29mn
Bit rate mode : Constant
Bit rate : 448 Kbps
Channel(s) : 6 channels
Channel positions : Front: L C R, Side: L R, LFE
Sampling rate : 48.0 KHz
Compression mode : Lossy
Stream size : 287 MiB (4%)
Title : English
Language : English
Default : No
Forced : No
Text #1
ID : 7
Format : UTF-8
Codec ID : S_TEXT/UTF8
Codec ID/Info : UTF-8 Plain Text
Title : Українска
Language : Ukrainian
Default : No
Forced : No
Text #2
ID : 8
Format : UTF-8
Codec ID : S_TEXT/UTF8
Codec ID/Info : UTF-8 Plain Text
Title : Русский
Language : Russian
Default : No
Forced : No
Text #3
ID : 9
Format : UTF-8
Codec ID : S_TEXT/UTF8
Codec ID/Info : UTF-8 Plain Text
Title : English
Language : English
Default : No
Forced : No
Menu
00:00:00.000 : en:00:00:00.000
00:11:05.706 : en:00:11:05.706
00:21:46.138 : en:00:21:46.138
00:33:04.857 : en:00:33:04.857
00:39:57.186 : en:00:39:57.186
00:48:51.386 : en:00:48:51.386
01:00:58.363 : en:01:00:58.363
01:09:28.163 : en:01:09:28.163
01:19:17.752 : en:01:19:17.752
01:26:01.155 : en:01:26:01.155
01:29:32.950 : en:01:29:32.950

Скриншоты

 

Текущее время: 20-Авг 04:17

Часовой пояс: UTC + 3