Результатов поиска: 328

Автор Сообщение

Hexep

Создавать темы 28.Май.2019 18:46

[Цитировать]

Блеф / Bluff storia di truffe e di imbroglioni«История обмана и мошенничества»-Общая информация:-Год: 1976
Название в России: Блеф
Оригинальное название: Bluff storia di truffe e di imbroglioni
Страна: Италия
Жанр: Комедия, криминал
Продолжительность: 01:49:01
Перевод: Дубляж (со вставками MVO)
Субтитры: Rus (Full)
Режиссер: Серджио Корбуччи
В главных ролях: Адриано Челентано, Энтони Куинн, Коринн Клери, Капюсин, Уго Болонья, Сальваторе Боргезе, Лео Гаверо, Мирча Карвен, Микки Нокс, Хелен Стёрлинг
-Описание:-Белль Дюк имеет старые счеты с Филиппом Бэнгом, который отбывает свой срок за решёткой. Для того чтобы поквитаться с Филиппом, Белль Дюк вступает в сговор с другим аферистом по имени Феликс, чтобы тот организовал побег Филиппа Бенга из тюрьмы.
Побег удаётся, но парочка заодно обманывает и Белль Дюк, исчезнув прямо из-под её носа. Выясняется, что и Филипп Бэнг, в свою очередь, не прочь отомстить Белль Дюк. Для этого он задумывает грандиозную мистификацию, сродни покерному блефу…-Техническая информация:-» Качество: BDRip HEVC
» Контейнер: mkv
» Видео: 1920x1040 (1.85:1), 23.976 fps, ~4908 kbps avg, 0.103 bit/pixel
» Аудио#1: Русский: 48 kHz, AC3 Dolby Digital, 2/0 (L,R) ch, ~448 kbps (Дубляж + MVO)
» Аудио#2: Итальянский: 48 kHz, AC3 Dolby Digital, 2/0 (L,R) ch, ~320 kbps (Original)
» Субтитры: Rus (Full)

MediaInfo

General
Unique ID                      : 202357720336914250916791928143430825120 (0x983CADE71852FEEF0C2B7F4108E434A0)
Complete name                  : D:\Видео\Фильмы\Блеф (1976) [HEVC 10bit].mkv
Format                         : Matroska
Format version                 : Version 4
File size                      : 4.29 GiB
Duration                       : 1 h 49 min
Overall bit rate               : 5 628 kb/s
Encoded date                   : UTC 2019-05-28 14:34:49
Writing application            : mkvmerge v32.0.0 ('Astral Progressions') 32-bit
Writing library                : libebml v1.3.7 + libmatroska v1.5.0
Cover                          : Yes
Attachments                    : cover.jpg
Video
ID                             : 1
Format                         : HEVC
Format/Info                    : High Efficiency Video Coding
Format profile                 : Main 10@L4@Main
Codec ID                       : V_MPEGH/ISO/HEVC
Duration                       : 1 h 49 min
Bit rate                       : 4 908 kb/s
Width                          : 1 920 pixels
Height                         : 1 040 pixels
Display aspect ratio           : 1.85:1
Frame rate mode                : Constant
Frame rate                     : 23.976 (24000/1001) FPS
Color space                    : YUV
Chroma subsampling             : 4:2:0
Bit depth                      : 10 bits
Bits/(Pixel*Frame)             : 0.103
Stream size                    : 3.74 GiB (87%)
Writing library                : x265 2.9:[Windows][GCC 8.2.0][64 bit] 10bit
Encoding settings              : cpuid=1049583 / frame-threads=3 / numa-pools=8 / wpp / no-pmode / no-pme / no-psnr / no-ssim / log-level=2 / input-csp=1 / input-res=1920x1040 / interlace=0 / total-frames=0 / level-idc=0 / high-tier=1 / uhd-bd=0 / ref=3 / no-allow-non-conformance / no-repeat-headers / annexb / no-aud / no-hrd / info / hash=0 / no-temporal-layers / open-gop / min-keyint=24 / keyint=240 / gop-lookahead=0 / bframes=4 / b-adapt=0 / b-pyramid / bframe-bias=0 / rc-lookahead=15 / lookahead-slices=6 / scenecut=40 / radl=0 / no-intra-refresh / ctu=64 / min-cu-size=8 / no-rect / no-amp / max-tu-size=32 / tu-inter-depth=1 / tu-intra-depth=1 / limit-tu=0 / rdoq-level=0 / dynamic-rd=0.00 / no-ssim-rd / signhide / no-tskip / nr-intra=0 / nr-inter=0 / no-constrained-intra / strong-intra-smoothing / max-merge=2 / limit-refs=3 / no-limit-modes / me=1 / subme=2 / merange=57 / temporal-mvp / weightp / no-weightb / no-analyze-src-pics / deblock=0:0 / sao / no-sao-non-deblock / rd=2 / no-early-skip / rskip / fast-intra / no-tskip-fast / no-cu-lossless / no-b-intra / no-splitrd-skip / rdpenalty=0 / psy-rd=2.00 / psy-rdoq=0.00 / no-rd-refine / no-lossless / cbqpoffs=0 / crqpoffs=0 / rc=crf / crf=20.0 / qcomp=0.60 / qpstep=4 / stats-write=0 / stats-read=0 / ipratio=1.40 / pbratio=1.30 / aq-mode=1 / aq-strength=1.00 / cutree / zone-count=0 / no-strict-cbr / qg-size=32 / no-rc-grain / qpmax=69 / qpmin=0 / no-const-vbv / sar=1 / overscan=0 / videoformat=5 / range=0 / colorprim=1 / transfer=1 / colormatrix=1 / chromaloc=0 / display-window=0 / max-cll=0,0 / min-luma=0 / max-luma=1023 / log2-max-poc-lsb=8 / vui-timing-info / vui-hrd-info / slices=1 / no-opt-qp-pps / no-opt-ref-list-length-pps / no-multi-pass-opt-rps / scenecut-bias=0.05 / no-opt-cu-delta-qp / no-aq-motion / no-hdr / no-hdr-opt / no-dhdr10-opt / no-idr-recovery-sei / analysis-reuse-level=5 / scale-factor=0 / refine-intra=0 / refine-inter=0 / refine-mv=0 / no-limit-sao / ctu-info=0 / no-lowpass-dct / refine-mv-type=0 / copy-pic=1 / max-ausize-factor=1.0 / no-dynamic-refine / no-single-sei
Language                       : Italian
Default                        : Yes
Forced                         : No
Color range                    : Limited
Color primaries                : BT.709
Transfer characteristics       : BT.709
Matrix coefficients            : BT.709
Audio #1
ID                             : 2
Format                         : AC-3
Format/Info                    : Audio Coding 3
Commercial name                : Dolby Digital
Codec ID                       : A_AC3
Duration                       : 1 h 49 min
Bit rate mode                  : Constant
Bit rate                       : 448 kb/s
Channel(s)                     : 2 channels
Channel layout                 : L R
Sampling rate                  : 48.0 kHz
Frame rate                     : 31.250 FPS (1536 SPF)
Bit depth                      : 16 bits
Compression mode               : Lossy
Stream size                    : 310 MiB (7%)
Title                          : Дубляж + MVO
Language                       : Russian
Service kind                   : Complete Main
Default                        : Yes
Forced                         : No
Audio #2
ID                             : 3
Format                         : AC-3
Format/Info                    : Audio Coding 3
Commercial name                : Dolby Digital
Codec ID                       : A_AC3
Duration                       : 1 h 49 min
Bit rate mode                  : Constant
Bit rate                       : 320 kb/s
Channel(s)                     : 2 channels
Channel layout                 : L R
Sampling rate                  : 48.0 kHz
Frame rate                     : 31.250 FPS (1536 SPF)
Bit depth                      : 16 bits
Compression mode               : Lossy
Stream size                    : 250 MiB (6%)
Title                          : Original
Language                       : Italian
Service kind                   : Complete Main
Default                        : No
Forced                         : No
Text
ID                             : 4
Format                         : UTF-8
Codec ID                       : S_TEXT/UTF8
Codec ID/Info                  : UTF-8 Plain Text
Duration                       : 1 h 47 min
Bit rate                       : 109 b/s
Count of elements              : 1520
Stream size                    : 85.8 KiB (0%)
Title                          : Full
Language                       : Russian
Default                        : Yes
Forced                         : No

Скриншоты

lordUnknown

Создавать темы 06.Май.2019 19:12

[Цитировать]

а как же самый главный скриншот?

VlasovVV

Создавать темы 06.Май.2019 03:44

[Цитировать]

Тринадцатый этаж / 13-ый этаж / The Thirteenth Floor«Question reality. You can go there even though it doesn't exist.»- Год выпуска: 1999
Страна: Германия, США
Жанр: фантастический триллер
Продолжительность: 01:40:30
Перевод №1: Профессиональный (дублированный )
Перевод №2: Профессиональный (двухголосый закадровый, R5 И.Тарадайкин и Л.Германова)
Перевод №3: Авторский (одноголосый закадровый, Ю.Живов)
Субтитры: Русские, Английские-Режиссер: Джозеф Руснак /Josef Rusnak
Сценарий: Джозеф Руснак /Josef Rusnak, Равель Сентено-Родригес / Ravel Centeno-Rodriguez, Дэниэл Ф. Галуйе / Daniel F. Galouye
Продюсер: Роланд Эммерих / Roland Emmerich, Уте Эммерих / Ute Emmerich, Марко Вебер / Marco Weber, Хельга Баллхаус / Helga Ballhaus, Михаэль Балльхаус / Michael Ballhaus, Келли Ван Хорн / Kelly Van Horn
Оператор: Ведиго фон Шульцендорфф / Wedigo von Schultzendorff
Композитор: Харальд Клозер / Harald Kloser
В ролях: Крэйг Бирко (Douglas Hall / John Ferguson / David), Гретхен Мол (Jane Fuller / Natasha Molinaro), Армин Мюллер-Шталь (Hannon Fuller / Grierson), Винсент Д'Онофрио (Jason Whitney / Jerry Ashton), Деннис Хейсбёрт (Detective Larry McBain), Стивен Шуб (Detective Zev Bernstein)-Описание: На тринадцатом этаже компьютерной корпорации была разработана совершенная модель виртуальной реальности, создание которой повлекло за собой цепь таинственных убийств. Разгадать загадку можно, лишь погрузившись в иное измерение, где может быть ответ на многие вопросы, а может быть — страшная нереальность...- -Качество: Blu-ray Rip 1080p
Формат: MKV
Видео: MPEG-4 AVC (H264), High Profile 4.1, 1920x800, 23.976 fps, ~17700 kbps avg, bit/(pixel*frame) 0.481
Аудио №1: Russian: 48 kHz, DTS, 3/2 (L,C,R,l,r) + LFE ch, ~1510.00 kbps avg //дубляж
Аудио №2: Russian: 48 kHz, AC3, 3/2 (L,C,R,l,r) + LFE ch, 384.00 kbps avg //двухголосый закадровый (R5 И.Тарадайкин и Л.Германова)
Аудио №3: Russian: 48 kHz, AC3, 3/2 (L,C,R,l,r) + LFE ch, ~448.00 kbps avg //одноголосый (закадровый, Ю.Живов)
Аудио №4: English: 48 kHz, DTS, 3/2 (L,C,R,l,r) + LFE ch, ~1510.00 kbps avg //оригинал
Аудио №5: English: 48 kHz, AC3, 2.0 (L,R) ch, ~192.00 kbps avg //commentary by Josef Rusnak
Субтитры: Russian, English (Softsub SRT)
Навигация по главам: есть
-

Скриншоты

Blu-Ray vs Rip






MediaInfo

F:\The Thirteenth Floor [Тринадцатый этаж] (1999) 1920x800 BDRip RusEngSubsChpt.mkv
General
Unique ID : 192710214761532088894146426725246045943 (0x90FAA32764D5A11C9961B82982220EF7)
Complete name : F:\The Thirteenth Floor [Тринадцатый этаж] (1999) 1920x800 BDRip RusEngSubsChpt.mkv
Format : Matroska
Format version : Version 4 / Version 2
File size : 15.3 GiB
Duration : 1h 40mn
Overall bit rate : 21.7 Mbps
Movie name : -=RbM=-
Encoded date : UTC 2014-01-21 12:41:41
Writing application : mkvmerge v6.7.0 ('Back to the Ground') 64bit built on Jan 8 2014 15:10:52
Writing library : libebml v1.3.0 + libmatroska v1.4.1
Video #1
ID : 1
Format : AVC
Format/Info : Advanced Video Codec
Format profile : High@L4.1
Format settings, CABAC : Yes
Format settings, ReFrames : 5 frames
Codec ID : V_MPEG4/ISO/AVC
Duration : 1h 40mn
Bit rate : 17.7 Mbps
Width : 1 920 pixels
Height : 800 pixels
Display aspect ratio : 2.40:1
Frame rate mode : Constant
Frame rate : 23.976 fps
Color space : YUV
Chroma subsampling : 4:2:0
Bit depth : 8 bits
Scan type : Progressive
Bits/(Pixel*Frame) : 0.481
Stream size : 12.1 GiB (79%)
Title : 70% of the original
Writing library : x264 core 140 r2377+40 929f149 tMod [8-bit@all X86_64]
Encoding settings : cabac=1 / ref=5 / deblock=1:-3:-2 / analyse=0x3:0x133 / me=umh / subme=11 / psy=1 / fade_compensate=0.00 / psy_rd=1.10:0.15 / mixed_ref=1 / me_range=32 / chroma_me=1 / trellis=2 / 8x8dct=1 / cqm=0 / deadzone=21,11 / fast_pskip=0 / chroma_qp_offset=-3 / threads=12 / lookahead_threads=3 / sliced_threads=0 / nr=0 / decimate=0 / interlaced=0 / bluray_compat=0 / constrained_intra=0 / fgo=0 / bframes=11 / b_pyramid=2 / b_adapt=2 / b_bias=0 / direct=3 / weightb=1 / open_gop=0 / weightp=2 / keyint=250 / keyint_min=23 / scenecut=40 / intra_refresh=0 / rc_lookahead=80 / rc=2pass / mbtree=1 / bitrate=17700 / ratetol=1.0 / qcomp=0.70 / qpmin=0:0:0 / qpmax=69:69:69 / qpstep=4 / cplxblur=20.0 / qblur=0.5 / ip_ratio=1.40 / aq=3:0.60 / aq-sensitivity=10.00 / aq-factor=1.00:1.00:1.00 / aq2=0 / aq3=0 / zones=139560,144576,q=40
Language : English
Default : Yes
Forced : No
Audio #2
ID : 2
Format : DTS
Format/Info : Digital Theater Systems
Mode : 16
Format settings, Endianness : Big
Codec ID : A_DTS
Duration : 1h 40mn
Bit rate mode : Constant
Bit rate : 1 509 Kbps
Channel count : 6 channels
Channel positions : Front: L C R, Side: L R, LFE
Sampling rate : 48.0 KHz
Bit depth : 16 bits
Compression mode : Lossy
Stream size : 1.06 GiB (7%)
Title : Dub DTS 5.1ch 1510kbps
Language : Russian
Default : Yes
Forced : No
Audio #3
ID : 3
Format : AC-3
Format/Info : Audio Coding 3
Mode extension : CM (complete main)
Format settings, Endianness : Big
Codec ID : A_AC3
Duration : 1h 40mn
Bit rate mode : Constant
Bit rate : 384 Kbps
Channel count : 6 channels
Channel positions : Front: L C R, Side: L R, LFE
Sampling rate : 48.0 KHz
Bit depth : 16 bits
Compression mode : Lossy
Stream size : 276 MiB (2%)
Title : DVO AC3 5.1ch 384kbps (R5 И.Тарадайкин и Л.Германова)
Language : Russian
Default : No
Forced : No
Audio #4
ID : 4
Format : AC-3
Format/Info : Audio Coding 3
Mode extension : CM (complete main)
Format settings, Endianness : Big
Codec ID : A_AC3
Duration : 1h 40mn
Bit rate mode : Constant
Bit rate : 448 Kbps
Channel count : 6 channels
Channel positions : Front: L C R, Side: L R, LFE
Sampling rate : 48.0 KHz
Bit depth : 16 bits
Compression mode : Lossy
Stream size : 322 MiB (2%)
Title : AVO AC3 5.1ch 448kbps
Language : Russian
Default : No
Forced : No
Audio #5
ID : 5
Format : DTS
Format/Info : Digital Theater Systems
Mode : 16
Format settings, Endianness : Big
Codec ID : A_DTS
Duration : 1h 40mn
Bit rate mode : Constant
Bit rate : 1 509 Kbps
Channel count : 6 channels
Channel positions : Front: L C R, Side: L R, LFE
Sampling rate : 48.0 KHz
Bit depth : 16 bits
Compression mode : Lossy
Stream size : 1.06 GiB (7%)
Title : Original DTS 5.1ch 1510kbps
Language : English
Default : No
Forced : No
Audio #6
ID : 6
Format : AC-3
Format/Info : Audio Coding 3
Format profile : Dolby Digital
Mode extension : CM (complete main)
Format settings, Endianness : Big
Codec ID : A_AC3
Duration : 1h 40mn
Bit rate mode : Constant
Bit rate : 192 Kbps
Channel count : 2 channels
Channel positions : Front: L R
Sampling rate : 48.0 KHz
Bit depth : 16 bits
Compression mode : Lossy
Stream size : 138 MiB (1%)
Title : AC3 2.0ch 192kbps (commentary by Josef Rusnak)
Language : English
Default : No
Forced : No
Text #7
ID : 7
Format : UTF-8
Codec ID : S_TEXT/UTF8
Codec ID/Info : UTF-8 Plain Text
Language : Russian
Default : No
Forced : No
Text #8
ID : 8
Format : UTF-8
Codec ID : S_TEXT/UTF8
Codec ID/Info : UTF-8 Plain Text
Language : English
Default : No
Forced : No
Menu
00:00:00.000 : en:Start
00:06:51.702 : en:Fuller Stumbles
00:12:55.649 : en:Detective McBain
00:19:57.321 : en:Jane Fuller
00:28:39.634 : en:Jason Whitney
00:36:42.909 : en:Hall is Confronted
00:42:00.017 : en:Consciousness Transfer
00:46:25.532 : en:Download Completed
00:51:46.853 : en:Grierson's Antique Store
00:59:19.472 : en:Wilshire Grand Hotel
01:03:10.870 : en:Connection Terminated
01:09:22.032 : en:Tom Jones
01:17:07.164 : en:Deja vu
01:22:25.982 : en:Under Arrest
01:28:17.125 : en:Douglas' Alibi
01:34:09.977 : en:Grierson's Memory

x264 log

x264 [info]: frame I:804 Avg QP:15.44 size:203024 PSNR Mean Y:49.16 U:51.25 V:53.11 Avg:49.90 Global:48.87
x264 [info]: frame P:29540 Avg QP:17.89 size:112263 PSNR Mean Y:46.82 U:49.40 V:51.85 Avg:47.66 Global:47.14
x264 [info]: frame B:114232 Avg QP:17.34 size: 86231 PSNR Mean Y:46.73 U:49.19 V:51.82 Avg:47.51 Global:47.00
x264 [info]: consecutive B-frames: 2.3% 2.4% 5.1% 12.2% 18.0% 39.0% 8.8% 7.8% 1.9% 0.5% 0.9% 1.1%
x264 [info]: mb I I16..4: 12.1% 70.7% 17.2%
x264 [info]: mb P I16..4: 1.3% 25.2% 2.1% P16..4: 22.8% 31.3% 9.8% 2.0% 0.1% skip: 5.2%
x264 [info]: mb B I16..4: 0.4% 7.6% 0.4% B16..8: 36.3% 28.9% 6.0% direct:12.2% skip: 8.3% L0:41.7% L1:34.2% BI:24.1%
x264 [info]: 8x8 transform intra:88.9% inter:30.7%
x264 [info]: direct mvs spatial:98.9% temporal:1.1%
x264 [info]: coded y,uvDC,uvAC intra: 98.3% 92.9% 84.7% inter: 70.0% 58.2% 37.1%
x264 [info]: i16 v,h,dc,p: 13% 4% 22% 60%
x264 [info]: i8 v,h,dc,ddl,ddr,vr,hd,vl,hu: 9% 7% 14% 10% 13% 12% 11% 12% 12%
x264 [info]: i4 v,h,dc,ddl,ddr,vr,hd,vl,hu: 10% 8% 6% 9% 15% 14% 13% 11% 13%
x264 [info]: i8c dc,h,v,p: 60% 13% 13% 14%
x264 [info]: Weighted P-Frames: Y:4.5% UV:2.2%
x264 [info]: ref P L0: 42.7% 7.7% 25.4% 11.9% 11.0% 1.2% 0.1%
x264 [info]: ref B L0: 73.6% 19.0% 5.8% 1.5%
x264 [info]: ref B L1: 90.5% 9.5%
x264 [info]: SSIM Mean Y:0.9813789 (17.300db)
x264 [info]: PSNR Mean Y:46.761 U:49.245 V:51.831 Avg:47.555 Global:47.039 kb/s:17684.63
x264 [info]: encoded 144576 frames, 5.254 fps, 17684.63 kb/s, 12712 MB
x264 [info]: ended at Mon Jan 20 14:58:37 2014
x264 [info]: encoding duration 7:38:38

AnonyM

Создавать темы 05.Май.2019 20:26

[Цитировать]

великий фильм

VlasovVV

Создавать темы 05.Май.2019 18:46

[Цитировать]

«Мир уже никогда не будет прежним, после того как вы увидите его глазами Форреста Гампа»- Год выпуска: 1994
Страна: США, Paramount Pictures
Жанр: мелодрама, драма
Продолжительность: 2:22:00
Перевод: Профессиональный (многоголосый, закадровый) + Одноголосый (Авторский)
Русские субтитры: есть
Режиссер: Роберт Земекис / Robert Zemeckis
В ролях: Том Хэнкс, Робин Райт Пенн, Гари Синиз, Микелти Уильямсон, Салли Филд, Ребекка Уильямс, Джордж Келли, Боб Пенни, Хэйли Джоэл Осмент и др.
Описание: Захватывающий, глубокий, очень добрый и трогательный фильм рассказывает от лица главного героя Форреста Гампа (Том Хэнкс), слабоумного безобидного человека с благородным и открытым сердцем, историю его необыкновенной жизни. Фантастическим образом превращается он в известного футболиста, героя войны, преуспевающего бизнесмена. Он становится миллиардером, но остается таким же бесхитростным, глупым и добрым. Форреста ждет постоянный успех во всем, а он любит девушку, с которой дружил в детстве (Робин Райт),но взаимность приходит слишком поздно.
Доп. информация:
#3 в TOP 250 фильмов Кинопоиск
#39 в TOP 250 фильмов IMDB

IMDB User Rating: 8.6/10 (262,366 votes)-Качество: BDRip
Формат: MKV
Видео кодек: H.264
Аудио кодек: DTS
Видео: 1920x816, 23.976 fps, 13400 kbps
Аудио 1: Русский DTS 5.1 1510 kbps 48 kHz (перевод МедиаКомплекса)
Аудио 2: Русский DTS 5.1 1510 kbps 48 kHz (перевод Гаврилова)
Аудио 3: Английский DTS 5.1 1510 kbps 48 kHz
Субтитры: Русские, Английские, Французские

MediaInfo

*** MediaInfo Mac // Plain text file report
2009-11-06 21:55:03 +0300
Information for File: Forrest.Gump.1994.BluRay.1080p.mkv
General / Container Stream # 1
Total Video Streams for this File -> 1
Total Audio Streams for this File -> 3
Video Codecs Used -> AVC
Audio Codecs Used -> DTS / DTS / DTS
File Format -> Matroska
Play Time -> 2h 22mn
Total File Size -> 18.1 GiB
Total Stream BitRate -> 18.3 Mbps
Title (Tag) -> Forrest Gump
Encoded with -> mkvmerge v2.9.7 ('Tenderness') built on Jul 5 2009 13:26:28
Encoding Library -> libebml v0.7.8 + libmatroska v0.8.1
Video Stream # 1
Codec (Human Name) -> AVC
Codec (FourCC) -> V_MPEG4/ISO/AVC
Codec Profile -> High@L4.1
Frame Width -> 1 920 pixels
Frame Height -> 816 pixels
Frame Rate -> 23.976 fps
Total Frames -> 204500
Display Aspect Ratio -> 2.35
Scan Type -> Progressive
Colorimetry -> 4:2:0
Codec Settings (Summary) -> CABAC / 5 Ref Frames
QF (like Gordian Knot) -> 0.356
Codec Settings (CABAC) -> Yes
Video Stream Length -> 2h 22mn 0s 833ms
Video Stream BitRate -> 13.4 Mbps
Bit Depth -> 24 bits
Video Stream Size -> 13.3 GiB (73%)
Video Stream Title -> Forrest Gump
Video Encoder -> x264 - core 77 r1292 e381f6d
Video Encoder (Settings) -> cabac=1 / ref=5 / deblock=1:-3:-3 / analyse=0x3:0x113 / me=umh / subme=9 / psy=1 / psy_rd=1.0:0.0 / mixed_ref=1 / me_range=64 / chroma_me=1 / trellis=2 / 8x8dct=1 / cqm=0 / deadzone=21,11 / chroma_qp_offset=-2 / threads=6 / nr=0 / decimate=1 / mbaff=0 / constrained_intra=0 / bframes=12 / b_pyramid=0 / b_adapt=2 / b_bias=0 / direct=2 / wpredb=1 / keyint=250 / keyint_min=25 / scenecut=40 / rc_lookahead=40 / rc=crf / mbtree=1 / crf=20.0 / qcomp=0.80 / qpmin=10 / qpmax=51 / qpstep=4 / vbv_maxrate=38000 / vbv_bufsize=30000 / ip_ratio=1.40 / aq=1:0.80
Video Stream Language -> English
Audio Stream # 1
Codec -> DTS
Codec (FourCC) -> A_DTS
Audio Stream Length -> 2h 22mn 9s 376ms
Audio Stream BitRate -> 1 510 Kbps
Audio Stream BitRate Mode -> CBR
Number of Audio Channels -> 6
Audio Channel's Positions -> Front: L C R, Surround: L R, LFE
Sampling Rate -> 48.0 KHz
Bit Depth -> 24 bits
Audio Stream Size -> 1.50 GiB (8%)
Audio Stream Title -> RUS DTS 5.1 MVO
Audio Stream Language -> Russian
Audio Stream # 2
Codec -> DTS
Codec (FourCC) -> A_DTS
Audio Stream Length -> 2h 22mn 9s 376ms
Audio Stream BitRate -> 1 510 Kbps
Audio Stream BitRate Mode -> CBR
Number of Audio Channels -> 6
Audio Channel's Positions -> Front: L C R, Surround: L R, LFE
Sampling Rate -> 48.0 KHz
Bit Depth -> 24 bits
Audio Stream Size -> 1.50 GiB (8%)
Audio Stream Title -> RUS DTS 5.1 AVO (Gavrilov)
Audio Stream Language -> Russian
Audio Stream # 3
Codec -> DTS
Codec (FourCC) -> A_DTS
Audio Stream Length -> 2h 22mn 9s 376ms
Audio Stream BitRate -> 1 510 Kbps
Audio Stream BitRate Mode -> CBR
Number of Audio Channels -> 6
Audio Channel's Positions -> Front: L C R, Surround: L R, LFE
Sampling Rate -> 48.0 KHz
Bit Depth -> 24 bits
Audio Stream Size -> 1.50 GiB (8%)
Audio Stream Title -> ENG DTS 5.1
Audio Stream Language -> English

Скриншоты

Интересные факты о фильме

В ходе съемок одной из сцен Том Хэнкс говорит: «Мое имя — Форрест Гамп. Люди зовут меня Форрест Гамп». На самом деле актер совершил оговорку, но режиссеру Роберту Земекису она пришлась по вкусу, и он включил именно этот дубль в итоговую версию картины.
Роль Форреста прочили Биллу Мюррею.
Режиссерское кресло могло достаться Барри Зонненфельду и Терри Гиллиаму.
Во время съемок футбольных сцен Том Хэнкс был болен гриппом, однако стойко выдержал испытания и отработал в эти дни через «не могу».
Том Хэнкс согласился принять участие в съемках с одним условием: все события картины должны перекликаться с реальными историческими событиями.
В эпизодических ролях были задействованы Александр Земекис (сын режиссера) и Элизабет Хэнкс (дочь актера).
После того, как Дженни (Робин Райт) умирает, Форест приходит посетить ее могилу. Он говорит: «Ты умерла в субботу». Однако надпись на могильном камне противоречит данной фразе. Там указана дата смерти — 22 марта 1982 года (понедельник).
Имя персонажа Forrest Gump созвучно словосочетанию «forest gamp» — что в переводе с английского означает «лесной зонтик». Сами слова однако переводятся как «лесной житель» и «придурок».
Фильм достаточно далеко ушёл от исходного романа Уинстона Грума, в котором Форрест Гамп показан резким несносным циником. А цитата из фильма «Жизнь это как коробка конфет» полностью противоположна мысли из романа «Быть идиотом это не коробка конфет».
Кинокомпания «Warner Bros.» отказалась от прав на этот фильм в 1988 году, посчитав, что реализация этого проекта будет коммерчески невыгодна после выхода фильма «Человек дождя».
«Оторванные» ноги Гари Синиза при съёмке были обёрнуты специальным синим полотном, что позволило их потом «стереть» из кадра посредством компьютерных спецэффектов. Тем не менее в некоторых эпизодах заметно как лейтенант Ден слегка опирается на отсутствующие конечности.
Оригинальный акцент Форреста Гампа Том Хэнкс подсмотрел у Майкла Коннера Хамфриса, игравшего молодого Гампа и действительно в жизни говорившего с таким акцентом.
Почти все реплики давно умершего Джона Леннона для этого фильма были взяты из его песни «Imagine».
Сцена, в которой Форрест Гамп получает Медаль Почёта, была смонтирована из архивной плёнки награждения рядового 1-го класса Сэмми Л. Дэвиса (19 ноября 1968 года), который имел ранения спины и ягодиц в результате «дружественного огня».
При каждой «смене возраста» Форреста одна вещь остаётся неизменной — в первой сцене в «новом» возрасте Форрест появляется в синей рубашке.
Фамилия Дженни — Каррен — фигурирует только один раз в фильме: на конверте, посланном Форресту во Вьетнам.
Салли Филд, игравшая маму Форреста, всего на 10 лет старше Тома Хэнкса.
Салли Филд ранее уже снималась вместе с Томом Хэнксом - это произошло на съемочной площадке картины «Изюминка» 1988г. В этом фильме герой Хэнкса ухаживает и даже делает предложение героине Салли.

jeycon

Создавать темы 26.Фев.2019 16:09

[Цитировать]

Отличнейшее кино. good
Реальную картину того времени конечно смягчили, но и так фильм хорошо иллюстрирует отношение к "цветным" в США еще 50 лет назад.

Ruff

Создавать темы 25.Фев.2019 21:05

[Цитировать]

Зеленая книга/ Green Book
«Оскар 2019» за Лучший фильм-- Год выпуска: 2018
Страна: США
Жанр: комедия, драма, биография
Продолжительность: 02:10:08
Перевод: Профессиональный (дублированный)[цифровая лицензия iTunes]
Cубтитры: английские
Режиссер: Питер Фаррелли
В ролях: Вигго Мортенсен☆Viggo Mortensen (Tony Lip), Махершала Али☆Mahershala Ali (Dr. Don Shirley), Линда Карделлини☆Linda Cardellini (Dolores), Себастьян Манискалко☆Sebastian Maniscalco (Johnny Venere), Димитар Маринов☆Dimiter D. Marinov (Oleg), Майк Хаттон☆Mike Hatton (George), П.Дж. Бирн☆P.J. Byrne (Record Exec), Джозеф Кортезе☆Joseph Cortese (Gio Loscudo), Мэгги Никсон☆Maggie Nixon (Copa Coat Check Girl), Фон Льюис☆Von Lewis (Bobby Rydell)
Описание: Утонченный светский лев, богатый и талантливый музыкант нанимает в качестве водителя и телохранителя человека, который менее всего подходит для этой работы. Тони «Болтун» — вышибала, не умеющий держать рот на замке и пользоваться столовыми приборами, зато он хорошо работает кулаками. Это турне навсегда изменит жизнь обоих.
--Качество: WEB-DL 1080p pic
Формат: MKV
Видео кодек: AVC
Аудио кодек: AC3
Видео: 1920x960 (2.000:1), 23.976 fps, High@L4.0, 8 963 Kbps
Аудио #1: Rus AC3, 384 Kbps, 48.0 KHz, 6 ch
Аудио #2: Eng AC3+, 640 Kbps, 48.0 KHz, 6 ch
Сэмпл - http://sendfile.su/1477778

Трейлер к фильму

https://www.youtube.com/watch?v=e6b9urtUJt0

MediaInfo

General
Unique ID : 205382543373516397750438185426587997123 (0x9A833D3150CC11A3B5E741D1DA9FD3C3)
Complete name : Green.Book.2018.D.AMZN.WEB-DL.1080p.mkv
Format : Matroska
Format version : Version 4 / Version 2
File size : 9.26 GiB
Duration : 2h 10mn
Overall bit rate : 10.2 Mbps
Encoded date : UTC 2010-02-22 21:41:31
Writing application : mkvmerge v5.8.0 ('No Sleep / Pillow') built on Nov 13 2012 19:43:22
Writing library : libebml v1.3.0 + libmatroska v1.4.0
Video
ID : 1
Format : AVC
Format/Info : Advanced Video Codec
Format profile : High@L4.0
Format settings, CABAC : Yes
Format settings, ReFrames : 4 frames
Codec ID : V_MPEG4/ISO/AVC
Duration : 2h 10mn
Bit rate mode : Constant
Bit rate : 8 963 Kbps
Nominal bit rate : 10 000 Kbps
Width : 1 920 pixels
Height : 960 pixels
Display aspect ratio : 2.000
Frame rate mode : Constant
Frame rate : 23.976 fps
Color space : YUV
Chroma subsampling : 4:2:0
Bit depth : 8 bits
Scan type : Progressive
Bits/(Pixel*Frame) : 0.203
Stream size : 8.15 GiB (88%)
Language : English
Default : Yes
Forced : No
Color primaries : BT.709
Transfer characteristics : BT.709
Matrix coefficients : BT.709
Audio #1
ID : 2
Format : AC-3
Format/Info : Audio Coding 3
Mode extension : CM (complete main)
Format settings, Endianness : Big
Codec ID : A_AC3
Duration : 2h 10mn
Bit rate mode : Constant
Bit rate : 384 Kbps
Channel(s) : 6 channels
Channel positions : Front: L C R, Side: L R, LFE
Sampling rate : 48.0 KHz
Bit depth : 16 bits
Compression mode : Lossy
Stream size : 357 MiB (4%)
Language : Russian
Default : Yes
Forced : No
Audio #2
ID : 3
Format : E-AC-3
Format/Info : Audio Coding 3
Format settings, Endianness : Big
Codec ID : A_EAC3
Duration : 2h 10mn
Bit rate mode : Constant
Bit rate : 640 Kbps
Channel(s) : 6 channels
Channel positions : Front: L C R, Side: L R, LFE
Sampling rate : 48.0 KHz
Compression mode : Lossy
Stream size : 596 MiB (6%)
Language : English
Default : No
Forced : No
Text
ID : 4
Format : UTF-8
Codec ID : S_TEXT/UTF8
Codec ID/Info : UTF-8 Plain Text
Title : SDH
Language : English
Default : No
Forced : No
Menu
00:00:00.000 : en:Глава 1
00:05:26.166 : en:Глава 2
00:12:14.457 : en:Глава 3
00:20:25.248 : en:Глава 4
00:26:22.456 : en:Глава 5
00:33:37.789 : en:Глава 6
00:40:53.580 : en:Глава 7
00:46:25.288 : en:Глава 8
00:53:59.413 : en:Глава 9
01:00:28.663 : en:Глава 10
01:07:14.746 : en:Глава 11
01:13:01.746 : en:Глава 12
01:20:03.621 : en:Глава 13
01:26:23.621 : en:Глава 14
01:33:48.204 : en:Глава 15
01:39:59.079 : en:Глава 16
01:44:20.870 : en:Глава 17
01:49:58.745 : en:Глава 18
01:56:24.995 : en:Глава 19
Скриншоты                    

Sergey3695

Создавать темы 17.Янв.2019 20:56

[Цитировать]

Mesivo, Hexep,

Mesivo

Создавать темы 16.Янв.2019 16:17

[Цитировать]

скрины в пнг сделай. меня не проведёшь! carnby

Hexep

Создавать темы 16.Янв.2019 14:50

[Цитировать]

Укрощение строптивого / Il bisbetico domato-Общая информация:-Год: 1980
Название в России: Укрощение строптивого
Оригинальное название: Il bisbetico domato
Страна: Италия
Жанр: Комедия
Продолжительность: 01:46:54
Перевод: Дубляж (со вставками MVO)
Субтитры: Rus (Full)
Режиссер: Франко Кастеллано, Джузеппе Моччиа
В главных ролях: Адриано Челентано, Орнелла Мути, Эдит Питерс, Пиппо Сантонастасо, Милли Карлуччи, Сандро Гиани, Николя Дель Буоно, Винченцо Де Тома, Джимми иль Феномено, Елена Мари
-Описание:-Категорически не приемлющий женского общества грубоватый фермер вполне счастлив и доволен своей холостяцкой жизнью. Но неожиданно появившаяся в его жизни женщина пытается изменить его взгляды на жизнь и очаровать его.-Техническая информация:-» Качество: BDRip HEVC
» Контейнер: mkv
» Видео: 1920x1044 (1.85:1), 23.976 fps, ~5980 kbps avg, 0.124 bit/pixel
» Аудио#1: Русский: 48 kHz, AC3 Dolby Digital, 2/0 (L,R) ch, ~192 kbps (Дубляж + MVO)
» Аудио#2: Итальянский: 48 kHz, AC3 Dolby Digital, 2/0 (L,R) ch, ~192 kbps (Original)
» Субтитры: Rus (Full)

MediaInfo

General
Unique ID                      : 321179574329315760807722532159892691754 (0xF1A0EF9BE71C18018DC04BE2336F1B2A)
Complete name                  : D:\Видео\Фильмы\Укрощение строптивого (1980) [HEVC 10Bit].mkv
Format                         : Matroska
Format version                 : Version 4 / Version 2
File size                      : 4.75 GiB
Duration                       : 1 h 46 min
Overall bit rate               : 6 367 kb/s
Movie name                     : Il bisbetico domato / Укрощение строптивого
Encoded date                   : UTC 2019-01-12 09:21:09
Writing application            : mkvmerge v29.0.0 ('Like It Or Not') 32-bit
Writing library                : libebml v1.3.6 + libmatroska v1.4.9
Cover                          : Yes
Attachments                    : cover.jpg
Video
ID                             : 1
Format                         : HEVC
Format/Info                    : High Efficiency Video Coding
Format profile                 : Main 10@L4.1@High
Codec ID                       : V_MPEGH/ISO/HEVC
Duration                       : 1 h 46 min
Bit rate                       : 5 980 kb/s
Width                          : 1 920 pixels
Height                         : 1 044 pixels
Display aspect ratio           : 1.85:1
Frame rate mode                : Constant
Frame rate                     : 23.976 (24000/1001) FPS
Color space                    : YUV
Chroma subsampling             : 4:2:0
Bit depth                      : 10 bits
Bits/(Pixel*Frame)             : 0.124
Stream size                    : 4.47 GiB (94%)
Writing library                : x265 2.6+27-2f3c4158cf35:[Windows][GCC 7.2.0][64 bit] 10bit
Encoding settings              : cpuid=1050111 / frame-threads=5 / numa-pools=4 / wpp / no-pmode / no-pme / no-psnr / no-ssim / log-level=3 / input-csp=1 / input-res=1920x1044 / interlace=0 / total-frames=0 / level-idc=41 / high-tier=1 / uhd-bd=0 / ref=4 / allow-non-conformance / no-repeat-headers / annexb / no-aud / no-hrd / info / hash=0 / no-temporal-layers / open-gop / min-keyint=24 / keyint=240 / gop-lookahead=0 / bframes=10 / b-adapt=2 / b-pyramid / bframe-bias=0 / rc-lookahead=40 / lookahead-slices=6 / scenecut=40 / radl=0 / no-intra-refresh / ctu=64 / min-cu-size=8 / no-rect / no-amp / max-tu-size=32 / tu-inter-depth=3 / tu-intra-depth=3 / limit-tu=0 / rdoq-level=0 / dynamic-rd=0.00 / no-ssim-rd / signhide / no-tskip / nr-intra=0 / nr-inter=0 / no-constrained-intra / no-strong-intra-smoothing / max-merge=3 / limit-refs=3 / no-limit-modes / me=3 / subme=7 / merange=57 / temporal-mvp / weightp / weightb / no-analyze-src-pics / deblock=-3:-3 / no-sao / no-sao-non-deblock / rd=4 / no-early-skip / rskip / no-fast-intra / no-tskip-fast / no-cu-lossless / no-b-intra / no-splitrd-skip / rdpenalty=0 / psy-rd=0.80 / psy-rdoq=0.00 / no-rd-refine / no-lossless / cbqpoffs=0 / crqpoffs=0 / rc=crf / crf=19.0 / qcomp=0.60 / qpstep=4 / stats-write=0 / stats-read=0 / vbv-maxrate=50000 / vbv-bufsize=35714 / vbv-init=0.9 / crf-max=0.0 / crf-min=0.0 / ipratio=1.40 / pbratio=1.30 / aq-mode=1 / aq-strength=0.80 / cutree / zone-count=0 / no-strict-cbr / qg-size=32 / no-rc-grain / qpmax=69 / qpmin=0 / no-const-vbv / sar=1 / overscan=0 / videoformat=5 / range=0 / colorprim=1 / transfer=1 / colormatrix=1 / chromaloc=0 / display-window=0 / max-cll=0,0 / min-luma=0 / max-luma=1023 / log2-max-poc-lsb=8 / vui-timing-info / vui-hrd-info / slices=1 / no-opt-qp-pps / no-opt-ref-list-length-pps / no-multi-pass-opt-rps / scenecut-bias=0.05 / no-opt-cu-delta-qp / no-aq-motion / no-hdr / no-hdr-opt / no-dhdr10-opt / analysis-save=(null) / analysis-load=(null) / analysis-reuse-level=5 / scale-factor=0 / refine-intra=0 / refine-inter=0 / refine-mv=0 / no-limit-sao / ctu-info=0 / no-lowpass-dct / refine-mv-type=0 / copy-pic=1
Default                        : Yes
Forced                         : No
Color range                    : Limited
Color primaries                : BT.709
Transfer characteristics       : BT.709
Matrix coefficients            : BT.709
Audio #1
ID                             : 2
Format                         : AC-3
Format/Info                    : Audio Coding 3
Format settings, Endianness    : Big
Codec ID                       : A_AC3
Duration                       : 1 h 46 min
Bit rate mode                  : Constant
Bit rate                       : 192 kb/s
Channel(s)                     : 2 channels
Channel positions              : Front: L R
Sampling rate                  : 48.0 kHz
Frame rate                     : 31.250 FPS (1536 SPF)
Bit depth                      : 16 bits
Compression mode               : Lossy
Stream size                    : 147 MiB (3%)
Title                          : Дубляж + MVO
Language                       : Russian
Service kind                   : Complete Main
Default                        : Yes
Forced                         : No
Audio #2
ID                             : 3
Format                         : AC-3
Format/Info                    : Audio Coding 3
Format settings, Endianness    : Big
Codec ID                       : A_AC3
Duration                       : 1 h 46 min
Bit rate mode                  : Constant
Bit rate                       : 192 kb/s
Channel(s)                     : 2 channels
Channel positions              : Front: L R
Sampling rate                  : 48.0 kHz
Frame rate                     : 31.250 FPS (1536 SPF)
Bit depth                      : 16 bits
Compression mode               : Lossy
Stream size                    : 147 MiB (3%)
Title                          : Original
Language                       : Italian
Service kind                   : Complete Main
Default                        : No
Forced                         : No
Text
ID                             : 4
Format                         : UTF-8
Codec ID                       : S_TEXT/UTF8
Codec ID/Info                  : UTF-8 Plain Text
Duration                       : 1 h 46 min
Bit rate                       : 104 b/s
Count of elements              : 1149
Stream size                    : 80.8 KiB (0%)
Title                          : Full
Language                       : Russian
Default                        : No
Forced                         : No
Menu
00:00:00.000                   : :(01)00:00:00:000
00:07:07.218                   : :(02)00:07:07:218
00:11:37.697                   : :(03)00:11:37:697
00:15:28.385                   : :(04)00:15:28:385
00:19:50.939                   : :(05)00:19:50:939
00:26:26.042                   : :(06)00:26:26:042
00:37:52.520                   : :(07)00:37:52:520
00:43:41.994                   : :(08)00:43:41:994
00:51:48.605                   : :(09)00:51:48:605
01:00:16.112                   : :(10)01:00:16:112
01:09:53.772                   : :(11)01:09:53:772
01:17:57.547                   : :(12)01:17:57:547
01:22:25.065                   : :(13)01:22:25:065
01:27:59.190                   : :(14)01:27:59:190
01:32:59.824                   : :(15)01:32:59:824
01:44:48.490                   : :(16)01:44:48:490

Скриншоты

Beecin

Создавать темы 27.Фев.2018 15:57

[Цитировать]

«Молодая женщина / Jeune femme»-Общая информация:-Год выпуска: 2017
Название (рус.): Молодая женщина
Оригинальное название: Jeune femme
Страна: Франция
Жанр: Драма, комедия
Продолжительность: 01:37:44
Перевод: Многоголосый закадровый
Субтитры: нет
Режиссер: Леонор Серай
В главных ролях: Летиция Дош, Сулейман Сейе Ндиайе, Грегуар Монсенжон, Жан-Кристоф Фолли, Натали Ришар, Arnaud de Cazes, Ahmed Zirek, Филипп Лэсри, Marie Rémond, Jean-René Lemoine
-Описание:-Эксцентричная трагикомедия о блужданиях странной и обаятельной героини в Париже. После долгих лет отсутствия Паула возвращается в Париж. Не имея ни гроша в кармане, с разбитым сердцем и любимой кошкой. Ей тридцать, ее жизнь в руинах, и приходится начинать все с нуля, получив в руки неожиданную свободу и независимость.-Техническая информация:-    » Качество: WEB-DL 1080p
    » Контейнер: MKV
    » Видео: 1912x1028, 23.976fps, 5130 kbps avg, 1,85:1
    » Аудио: Русский: AC3, 48.0 KHz, 6 ch., 384 kbps (iTunes)
    » Субтитры: нет

Medianfo

Полное имя : Jeune.Femme.(2017).Web-DL.1080p.BC.mkv
Формат : Matroska
Версия формата : Version 4 / Version 2
Размер файла : 3,77 Гбайт
Продолжительность : 1 ч. 37 м.
Общий поток : 5517 Кбит/сек
Название фильма : Молодая женщина / Jeune Femme (2017) Web-DL 1080p BC
Дата кодирования : UTC 2018-02-27 12:51:09
Программа кодирования : mkvmerge v20.0.0 ('I Am The Sun') 64-bit
Библиотека кодирования : libebml v1.3.5 + libmatroska v1.4.8
Attachments : 3092259.jpg
Видео
Идентификатор : 1
Формат : AVC
Формат/Информация : Advanced Video Codec
Профиль формата : High@L4
Настройки формата : CABAC / 4 Ref Frames
Параметр CABAC формата : Да
Параметр RefFrames формата : 4 кадра
Идентификатор кодека : V_MPEG4/ISO/AVC
Продолжительность : 1 ч. 37 м.
Битрейт : 5130 Кбит/сек
Ширина : 1912 пикселей
Высота : 1028 пикселей
Соотношение сторон : 1,85:1
Режим частоты кадров : Постоянный
Частота кадров : 23,976 (24000/1001) кадра/сек
Цветовое пространство : YUV
Субдискретизация насыщенности : 4:2:0
Битовая глубина : 8 бит
Тип развёртки : Прогрессивная
Бит/(Пиксели*Кадры) : 0.109
Размер потока : 3,50 Гбайт (93%)
Заголовок : iTunes
Язык : English
Default : Да
Forced : Нет
Цветовой диапазон : Limited
Основные цвета : BT.709
Характеристики трансфера : BT.709
Коэффициенты матрицы : BT.709
Аудио
Идентификатор : 2
Формат : AC-3
Формат/Информация : Audio Coding 3
Идентификатор кодека : A_AC3
Продолжительность : 1 ч. 37 м.
Вид битрейта : Постоянный
Битрейт : 384 Кбит/сек
Каналы : 6 каналов
Расположение каналов : Front: L C R, Side: L R, LFE
Частота : 48,0 КГц
Частота кадров : 31,250 кадров/сек (1536 SPF)
Битовая глубина : 16 бит
Метод сжатия : С потерями
Задержка видео : -42 мс.
Размер потока : 268 Мбайт (7%)
Заголовок : iTunes
Язык : Russian
ServiceKind/String : Complete Main
Default : Да
Forced : Нет
Меню
00:00:00.000 : en:_01
00:00:54.000 : en:_02
00:11:13.000 : en:_03
00:21:55.000 : en:_04
00:31:58.000 : en:_05
00:41:30.000 : en:_06
00:51:26.000 : en:_07
01:02:40.000 : en:_08
01:12:08.000 : en:_09
01:21:34.000 : en:_10
01:34:05.000 : en:_11

Скриншоты

Evgeny_Mozer

Создавать темы 24.Фев.2018 11:52

[Цитировать]

Quzoxe, ничего особенного в фильме нет. как и в случае с Матильдой больше шума из ничего.

Quzoxe

Создавать темы 24.Фев.2018 11:42

[Цитировать]

Evgeny_Mozer, во.. спасибо. ща в Калининград приеду, обязательно скачаю, гляну smile3 good
а то даж интересно стало, чё они там такого поназапрещали?)))

Evgeny_Mozer

Создавать темы 24.Фев.2018 04:03

[Цитировать]

««Тоталитарная комедия в вольной трактовке»» Год выпуска: 2017
Страна: Франция, Великобритания, Бельгия
Жанр: комедия
Продолжительность: 01:46:49
Перевод: Любительский (двухголосый) "Колобок"
Режиссёр: Армандо Ианнуччи
В ролях: Ольга Куриленко, Том Брук, Пэдди Консидайн, Джастин Эдвардс, Адриан Маклафлин, Саймон Расселл Бил, Джеффри Тэмбор, Стив Бушеми, Майкл Пэйлин, Пол Рэди
Описание:
СССР, 1953 год. Страна трепещет от страха перед одним человеком. 5 марта Генсек умер. Когда уходит великий вождь, наступает время борьбы за власть. Гонка началась!.. В общем, тоталитарная комедия в вольной трактовке. ТрейлерКачество: BDRip 1080p
Формат: MKV
Видео: 1920х1040p (1,85:1), 24,000 fps, AVC MPEG-4 (x264), High@L4.1, ~ 9 160 Кбит/сек, 0.191 bit/pixel

Aудио#1: Русский: 48 kHz/16 бит, AC3 Dolby Digital, 2/0 (L,R) ch, ~ 192 kbps avg [Любительский (двухголосый), "Колобок"]
Aудио#2: Английский: 48 kHz/24 бит, DTS, 3/2 (L,C,R,l,r) + LFE ch, ~ 1509 kbps avg [Оригинал] ]
Субтитры: Английские

MediaInfo


Общее
Уникальный идентификатор : 219026121520971302398010817836700939297 (0xA4C6E587D75EEB6292EE03F3EB043421)
Полное имя : E:\Закачка-2\The Death of Stalin 2017 BDRip(1080p).mkv
Формат : Matroska
Версия формата : Version 4 / Version 2
Размер файла : 8,09 Гбайт
Продолжительность : 1 ч. 46 м.
Общий поток : 10,9 Мбит/сек
Дата кодирования : UTC 2018-02-23 16:05:31
Программа кодирования : mkvmerge v7.8.0 ('River Man') 32bit built on Mar 27 2015 16:18:02
Библиотека кодирования : libebml v1.3.1 + libmatroska v1.4.2
Видео
Идентификатор : 1
Формат : AVC
Формат/Информация : Advanced Video Codec
Профиль формата : High@L4.1
Параметр CABAC формата : Да
Параметр ReFrames формата : 4 кадра
Идентификатор кодека : V_MPEG4/ISO/AVC
Продолжительность : 1 ч. 46 м.
Битрейт : 9160 Кбит/сек
Ширина : 1920 пикселей
Высота : 1040 пикселей
Соотношение сторон : 1,85:1
Режим частоты кадров : Постоянный
Частота кадров : 24,000 кадра/сек
Цветовое пространство : YUV
Субдискретизация насыщенности : 4:2:0
Битовая глубина : 8 бит
Тип развёртки : Прогрессивная
Бит/(Пиксели*Кадры) : 0.191
Размер потока : 6,66 Гбайт (82%)
Библиотека кодирования : x264 core 155 r2901 7d0ff22
Настройки программы : cabac=1 / ref=4 / deblock=1:-3:-3 / analyse=0x3:0x113 / me=umh / subme=8 / psy=1 / psy_rd=1.00:0.00 / mixed_ref=1 / me_range=32 / chroma_me=1 / trellis=1 / 8x8dct=1 / cqm=0 / deadzone=21,11 / fast_pskip=1 / chroma_qp_offset=-2 / threads=24 / lookahead_threads=4 / sliced_threads=0 / nr=0 / decimate=1 / interlaced=0 / bluray_compat=0 / constrained_intra=0 / bframes=3 / b_pyramid=2 / b_adapt=2 / b_bias=0 / direct=3 / weightb=1 / open_gop=0 / weightp=2 / keyint=240 / keyint_min=24 / scenecut=40 / intra_refresh=0 / rc_lookahead=50 / rc=2pass / mbtree=1 / bitrate=9160 / ratetol=1.0 / qcomp=0.60 / qpmin=0 / qpmax=69 / qpstep=4 / cplxblur=20.0 / qblur=0.5 / ip_ratio=1.40 / aq=3:0.80
Default : Да
Forced : Нет
Аудио #1
Идентификатор : 2
Формат : AC-3
Формат/Информация : Audio Coding 3
Расширение режима : CM (complete main)
Параметр Endianness формата : Big
Идентификатор кодека : A_AC3
Продолжительность : 1 ч. 46 м.
Вид битрейта : Постоянный
Битрейт : 192 Кбит/сек
Каналы : 2 канала
Расположение каналов : Front: L R
Частота : 48,0 КГц
Частота кадров : 31,250 кадров/сек (1536 spf)
Метод сжатия : С потерями
Размер потока : 146 Мбайт (2%)
Язык : Russian
Default : Да
Forced : Нет
Аудио #2
Идентификатор : 3
Формат : DTS
Формат/Информация : Digital Theater Systems
Режим : 16
Параметр Endianness формата : Big
Идентификатор кодека : A_DTS
Продолжительность : 1 ч. 46 м.
Вид битрейта : Постоянный
Битрейт : 1509 Кбит/сек
Каналы : 6 каналов
Расположение каналов : Front: L C R, Side: L R, LFE
Частота : 48,0 КГц
Частота кадров : 93,750 кадра/сек (512 spf)
Битовая глубина : 24 бит
Метод сжатия : С потерями
Размер потока : 1,12 Гбайт (14%)
Язык : English
Default : Нет
Forced : Нет
Текст #1
Идентификатор : 4
Формат : UTF-8
Идентификатор кодека : S_TEXT/UTF8
Идентификатор кодека/Информация : UTF-8 Plain Text
Язык : English
Default : Нет
Forced : Нет
Текст #2
Идентификатор : 5
Формат : UTF-8
Идентификатор кодека : S_TEXT/UTF8
Идентификатор кодека/Информация : UTF-8 Plain Text
Заголовок : SDH
Язык : English
Default : Нет
Forced : Нет
Меню
00:00:00.000 : en:00:00:00.000
00:06:38.875 : en:00:06:38.875
00:13:02.583 : en:00:13:02.583
00:19:53.125 : en:00:19:53.125
00:29:06.125 : en:00:29:06.125
00:33:58.250 : en:00:33:58.250
00:40:22.417 : en:00:40:22.417
00:45:28.000 : en:00:45:28.000
00:50:35.000 : en:00:50:35.000
00:58:40.750 : en:00:58:40.750
01:03:23.667 : en:01:03:23.667
01:12:31.750 : en:01:12:31.750
01:17:42.917 : en:01:17:42.917
01:24:49.000 : en:01:24:49.000
01:33:33.708 : en:01:33:33.708
01:39:25.583 : en:01:39:25.583

Скриншоты:

Danko13

Создавать темы 19.Фев.2018 20:59

[Цитировать]

253149таааааааааакое гавнище, что даже на полчаса просмотра меня не хватило. сей шлак даже детям стыдно показывать, не говоря о фанатах комиксов.
Так точно, мультики по Лиге намного лучше будут. И по Флэшу. И вообще по всему DC :)
 

Текущее время: 16-Июн 03:58

Часовой пояс: UTC + 3